BitTorrentTracker PerecTracker.org
BitTorrentTracker PerecTracker.org
    
Регистрация  ·  Вход
 
 · 
Забыли пароль?

  • Юнион Фернас / Union Furnace (Николас Бушмен / Nicholas Bushman) [2015, США, ужасы, триллер, WEB-DLRip] DVO (Den904 & DeadSno)

    Ответить на тему
     
    Автор Сообщение

    rechyn

    Создавать темы 15-Дек-2015 16:05

           

    [Цитировать]

    Юнион Фернас / Union Furnace
    Страна: США
    Жанр: ужасы, триллер
    Год выпуска: 2015
    Продолжительность: 01:29:19-Перевод: Любительский (двухголосный закадровый) Den904 & DeadSno
    Cубтитры: нет
    Оригинальная аудиодорожка: нет-Режиссер: Николас Бушмен / Nicholas Bushman-В ролях: Майкл Т. Двайер, Сет Хэммонд, Кэти Кин, Кит Дэвид, Кевин Краули, Тара Белландо, Misa Farslow, Крис Гриффит, Дэвид Хейуорд, Лайл Кэйнаус-Описание: Мошенник из маленького городка, Коди, оказывается, фактически, с петлей на шее, когда таинственный незнакомец предложил ему последний шанс в жизни. Вот только тут появилась проблемка, ведь в игре, в которую должен сыграть Коди, он должен поставить на кон всё, включая собственную жизнь. Коди оказывается запертым в комнате вместе с группой аутсайдеров и неудачников, которые, как и он борются за свой кусок пирога американской мечты.
    Подвергаясь пыткам и моральному унижению группой садистов в масках, Коди, как и другие, может выиграть целое состояние или же умереть жестокой смертью.-Сэмпл: http://sendfile.su/1183222
    Качество видео: WEB-DLRip
    Формат видео: AVI
    Видео: 720x304 (2.37:1), 24.000 fps, XviD build 50 ~928 kbps avg, 0.18 bit/pixel
    Аудио: 48 kHz, AC3 Dolby Digital, 2/0 (L,R) ch, ~192 kbps

    MediaInfo

    Формат : AVI
    Формат/Информация : Audio Video Interleave
    Размер файла : 722 Мбайт
    Продолжительность : 1 ч. 29 м.
    Общий поток : 1130 Кбит/сек
    Программа кодирования : VirtualDubMod 1.5.10.2 (build 2540/release)
    Библиотека кодирования : VirtualDubMod build 2540/release
    Видео
    Идентификатор : 0
    Формат : MPEG-4 Visual
    Профиль формата : Advanced Simple@L5
    Параметр BVOP формата : 1
    Параметр QPel формата : Нет
    Параметр GMC формата : Без точки перехода
    Параметр матрицы формата : Default (MPEG)
    Идентификатор кодека : XVID
    Идентификатор кодека/Подсказка : XviD
    Продолжительность : 1 ч. 29 м.
    Битрейт : 928 Кбит/сек
    Ширина : 720 пикселей
    Высота : 304 пикселя
    Соотношение сторон : 2,35:1
    Частота кадров : 24,000 кадра/сек
    Цветовое пространство : YUV
    Субдискретизация насыщенности : 4:2:0
    Битовая глубина : 8 бит
    Тип развёртки : Прогрессивная
    Метод сжатия : С потерями
    Бит/(Пиксели*Кадры) : 0.177
    Размер потока : 593 Мбайт (82%)
    Библиотека кодирования : XviD 1.2.1 (UTC 2008-12-04)
    Аудио
    Идентификатор : 1
    Формат : AC-3
    Формат/Информация : Audio Coding 3
    Расширение режима : CM (complete main)
    Параметр Endianness формата : Big
    Идентификатор кодека : 2000
    Продолжительность : 1 ч. 29 м.
    Вид битрейта : Постоянный
    Битрейт : 192 Кбит/сек
    Каналы : 2 канала
    Расположение каналов : Front: L R
    Частота : 48,0 КГц
    Частота кадров : 31,250 кадров/сек (1536 spf)
    Метод сжатия : С потерями
    Задержка видео : 2 мс.
    Размер потока : 123 Мбайт (17%)
    Выравнивание : Разделение по промежуткам
    Продолжительность промежутка : 42 мс. (1,00 видеокадр)
    Время предзагрузки промежутка : 500 мс.

    Скриншот c названием фильма

    Скриншоты




    Скачать .torrent

    Скачать торрент-файл бесплатно и на максимальной скорости!

    Как скачивать? · Что такое торрент? · Рейтинг и ограничения

    !ВНИМАНИЕ!
    Сайт не распространяет и не хранит электронные версии произведений, а занимается лишь лишь предоставлением доступа к создаваемому пользователями каталогу ссылок на торрент-файлы, которые содержат только списки хеш-сумм, убедительная просьба с жалобами обращаться напрямую к пользователю. Файлы для обмена на трекере предоставлены пользователями сайта, и администрация не несёт ответственности за их содержание. Просьба не заливать файлы, защищенные авторскими правами, а также файлы нелегального содержания!


    _________________
    [Профиль] [ЛС]
    Показать сообщения:    
    Ответить на тему

    Текущее время: Сегодня, в 05:08

    Часовой пояс: GMT + 2



    Вы не можете начинать темы
    Вы не можете отвечать на сообщения
    Вы не можете редактировать свои сообщения
    Вы не можете удалять свои сообщения
    Вы не можете голосовать в опросах
    Вы не можете прикреплять файлы к сообщениям
    Вы не можете скачивать файлы