BitTorrentTracker PerecTracker.org
BitTorrentTracker PerecTracker.org
    
Регистрация  ·  Вход
 
 · 
Забыли пароль?

  • Угадай, кто придет на Рождество? / Indovina chi viene a Natale? (Фаусто Брицци / Fausto Brizzi) [2013, Италия, Комедия, DVDRip] VO (Lord32x)

    Ответить на тему
     
    Автор Сообщение

    Light

    Создавать темы 15-Дек-2015 11:53

           

    [Цитировать]

    -Угадай, кто придет на Рождество? / Indovina chi viene a Natale?-Страна: Италия
    Жанр: Комедия
    Год выпуска: 2013
    Продолжительность: 01:39:37-Перевод: Lirik
    Озвучивание: Одноголосое закадровое [Lord32x]
    Cубтитры: нет
    Режиссер: Фаусто Брицци / Fausto Brizzi-В ролях: Диего Абатантуоно, Клаудио Бизио, Рауль Бова, Карло Буччироссо, Кристиана Капотонди, Анджела Финоккьяро, Клаудия Джерини, Розалия Поркаро, Иза Барцицца, Фаусто Брицци-Описание: Как изменилось празднование Рождества в итальянских семьях за последние годы? Что сегодня представляет собой самый добрый и светлый из всех праздников? По словам режиссера Фаусто Брицци, «Угадай, кто приедет к нам на Рождество?» - первая итальянская комедия о Рождестве. Современная итальянская семья: родители ожидают на Рождество дочку, которая должна приехать со своим новым женихом... Помимо знакомства с родителями героя ожидает встреча с детьми своей девушки, которые совсем не рады встрече с новым ухажером матери. В том же доме под Рождество соберутся и другие члены семьи, от приезда которых не приходится ждать ничего, кроме проблем...-Сэмпл: http://multi-up.com/1079451-Качество видео: DVDRip
    Формат видео: AVI
    Видео: 720x304 (2.35:1), 25.000 fps, XviD build 50 ~1711 kbps avg, 0.313 bit/pixel
    Аудио: 48 kHz, AC3 Dolby Digital, 3/2 (L,C,R,l,r) + LFE ch, ~384 kbps-

    MediaInfo

    General
    Complete name : D:\ОЗВУЧКА\Релизы\KinoRay.Indovina chi.Viene.a.Natale.2015.DVDRip.1500MB.Lord32x.Studio.avi
    Format : AVI
    Format/Info : Audio Video Interleave
    File size : 1.46 GiB
    Duration : 1h 39mn
    Overall bit rate : 2 105 Kbps
    Writing application : VirtualDubMod 1.5.10.3 | www.virtualdub-fr.org || (build 2550/release)
    Writing library : VirtualDubMod build 2550/release
    Video
    ID : 0
    Format : MPEG-4 Visual
    Format profile : Advanced Simple@L5
    Format settings, BVOP : 1
    Format settings, QPel : No
    Format settings, GMC : No warppoints
    Format settings, Matrix : Default (H.263)
    Codec ID : XVID
    Codec ID/Hint : XviD
    Duration : 1h 39mn
    Bit rate : 1 711 Kbps
    Width : 720 pixels
    Height : 304 pixels
    Display aspect ratio : 2.35:1
    Frame rate : 25.000 fps
    Color space : YUV
    Chroma subsampling : 4:2:0
    Bit depth : 8 bits
    Scan type : Progressive
    Compression mode : Lossy
    Bits/(Pixel*Frame) : 0.313
    Stream size : 1.19 GiB (81%)
    Writing library : XviD 1.2.1 (UTC 2008-12-04)
    Audio
    ID : 1
    Format : AC-3
    Format/Info : Audio Coding 3
    Mode extension : CM (complete main)
    Format settings, Endianness : Big
    Codec ID : 2000
    Duration : 1h 39mn
    Bit rate mode : Constant
    Bit rate : 384 Kbps
    Channel(s) : 6 channels
    Channel positions : Front: L C R, Side: L R, LFE
    Sampling rate : 48.0 KHz
    Compression mode : Lossy
    Stream size : 274 MiB (18%)
    Alignment : Split accross interleaves
    Interleave, duration : 40 ms (1.00 video frame)
    Interleave, preload duratio : 500 ms

    Скриншот c названием фильма

    Скриншоты


    Скачать .torrent

    Скачать торрент-файл бесплатно и на максимальной скорости!

    Как скачивать? · Что такое торрент? · Рейтинг и ограничения

    !ВНИМАНИЕ!
    Сайт не распространяет и не хранит электронные версии произведений, а занимается лишь лишь предоставлением доступа к создаваемому пользователями каталогу ссылок на торрент-файлы, которые содержат только списки хеш-сумм, убедительная просьба с жалобами обращаться напрямую к пользователю. Файлы для обмена на трекере предоставлены пользователями сайта, и администрация не несёт ответственности за их содержание. Просьба не заливать файлы, защищенные авторскими правами, а также файлы нелегального содержания!


    _________________
    [Профиль] [ЛС]

    -746

    Создавать темы 28-Дек-2015 16:10 (спустя 13 дней)

           

    Топик был перенесен из форума Фильмы 2011-2014 в форум Новогодние релизы - Фильмы, Мультфильмы


    -sasha2006

    _________________
    Как бы ты высоко не летал, не забывай, с кем ты ползал..
     
    Показать сообщения:    
    Ответить на тему

    Текущее время: Сегодня, в 23:10

    Часовой пояс: GMT + 2



    Вы не можете начинать темы
    Вы не можете отвечать на сообщения
    Вы не можете редактировать свои сообщения
    Вы не можете удалять свои сообщения
    Вы не можете голосовать в опросах
    Вы не можете прикреплять файлы к сообщениям
    Вы не можете скачивать файлы