BitTorrentTracker PerecTracker.org
BitTorrentTracker PerecTracker.org
    
Регистрация  ·  Вход
 
 · 
Забыли пароль?

  • Смерть в колледже / Dead on Campus / Eiskalter Engel Tod Im College (Кертис Кроуфорд / Curtis Crawford) [2014, Канада, драма, криминал, HDRip] AVO (Андрей Дольский) + Original Eng

    Ответить на тему
     
    Автор Сообщение

    Light

    Создавать темы 15-Дек-2015 11:53

           

    [Цитировать]

    Смерть в колледже / Dead on Campus / Eiskalter Engel Tod Im College
    Страна: Канада
    Жанр: драма, криминал
    Год выпуска: 2014
    Продолжительность: 01:28:52-Перевод: Авторский (одноголосный закадровый) Андрей Дольский
    Cубтитры: нет
    Оригинальная аудиодорожка: английский-Режиссер: Кертис Кроуфорд / Curtis Crawford-В ролях: Кейтлин Тервер, Тамара Дуарте, Никки Эйкокс, Ашанти Бромфилд, Мирелли Браунхилл, Синтия Бурк, Тристан Криггер, Джулия Дэйлз, Питер Майкл Диллон, Джонатан Эмонд..-Описание: Умная первокурсница колледжа Натали, не похожа на типичную пай девочку.
    Она наследница традиций женского общества ее мамы и перед ней стоит действительно большой шанс на то, чтобы реализовать его, несмотря на одно. Она соглашается соблазнить Самнера, тихую и застенчивую местную знаменитость, и заснять на видео. Но когда до Натали доходит, что шутка идет не так как надо, для нее стоит очевидный выбор – сказать правду или молчать обо всем.-Сэмпл: http://sendfile.su/1183162


    Качество видео: HDRip (исходник: 1080p BDRip)
    Формат видео: MKV
    Видео: AVC, 1152х648, 16:9, 23,976 (24000/1001) кадра/сек, 2960 Кбит/сек
    Аудио 1: AC-3, 48,0 КГц, 384 Кбит/сек, 6 каналов: Front: L C R, Side: L R, LFE, авторский
    Аудио 2: AC-3, 48,0 КГц, 448 Кбит/сек, 6 каналов: Front: L C R, Side: L R, LFE, Original

    MediaInfo

    Формат : Matroska
    Версия формата : Version 2
    Размер файла : 2,55 Гбайт
    Продолжительность : 1 ч. 28 м.
    Общий поток : 4109 Кбит/сек
    Дата кодирования : UTC 2015-12-14 07:26:31
    Программа кодирования : mkvmerge v3.3.0 ('Language') built on Mar 24 2010 14:59:24
    Библиотека кодирования : libebml v0.8.0 + libmatroska v0.9.0
    Видео
    Идентификатор : 1
    Формат : AVC
    Формат/Информация : Advanced Video Codec
    Профиль формата : High@L4.1
    Параметр CABAC формата : Да
    Параметр ReFrames формата : 9 кадров
    Идентификатор кодека : V_MPEG4/ISO/AVC
    Продолжительность : 1 ч. 28 м.
    Битрейт : 2960 Кбит/сек
    Ширина : 1152 пикселя
    Высота : 648 пикселей
    Соотношение сторон : 16:9
    Режим частоты кадров : Постоянный
    Частота кадров : 23,976 (24000/1001) кадра/сек
    Цветовое пространство : YUV
    Субдискретизация насыщенности : 4:2:0
    Битовая глубина : 8 бит
    Тип развёртки : Прогрессивная
    Бит/(Пиксели*Кадры) : 0.165
    Размер потока : 1,78 Гбайт (70%)
    Библиотека кодирования : x264 core 92 r1510 33d382a
    Настройки программы : cabac=1 / ref=9 / deblock=1:-1:-1 / analyse=0x3:0x133 / me=umh / subme=9 / psy=1 / psy_rd=1.00:0.10 / mixed_ref=1 / me_range=26 / chroma_me=1 / trellis=2 / 8x8dct=1 / cqm=0 / deadzone=21,11 / fast_pskip=0 / chroma_qp_offset=-3 / threads=6 / sliced_threads=0 / nr=0 / decimate=0 / interlaced=0 / constrained_intra=0 / bframes=9 / b_pyramid=2 / b_adapt=2 / b_bias=0 / direct=3 / wpredb=1 / wpredp=2 / keyint=250 / keyint_min=25 / scenecut=40 / intra_refresh=0 / rc=2pass / mbtree=0 / bitrate=2960 / ratetol=1.0 / qcomp=0.60 / qpmin=10 / qpmax=51 / qpstep=4 / cplxblur=20.0 / qblur=0.5 / ip_ratio=1.40 / pb_ratio=1.30 / aq=1:1.00
    Default : Да
    Forced : Нет
    Аудио #1
    Идентификатор : 2
    Формат : AC-3
    Формат/Информация : Audio Coding 3
    Расширение режима : CM (complete main)
    Параметр Endianness формата : Big
    Идентификатор кодека : A_AC3
    Продолжительность : 1 ч. 28 м.
    Вид битрейта : Постоянный
    Битрейт : 384 Кбит/сек
    Каналы : 6 каналов
    Расположение каналов : Front: L C R, Side: L R, LFE
    Частота : 48,0 КГц
    Частота кадров : 31,250 кадров/сек (1536 spf)
    Метод сжатия : С потерями
    Размер потока : 244 Мбайт (9%)
    Default : Да
    Forced : Нет
    Аудио #2
    Идентификатор : 3
    Формат : AC-3
    Формат/Информация : Audio Coding 3
    Расширение режима : CM (complete main)
    Параметр Endianness формата : Big
    Идентификатор кодека : A_AC3
    Продолжительность : 1 ч. 28 м.
    Вид битрейта : Постоянный
    Битрейт : 448 Кбит/сек
    Каналы : 6 каналов
    Расположение каналов : Front: L C R, Side: L R, LFE
    Частота : 48,0 КГц
    Частота кадров : 31,250 кадров/сек (1536 spf)
    Метод сжатия : С потерями
    Размер потока : 285 Мбайт (12%)
    Default : Нет
    Forced : Нет

    Скриншот c названием фильма

    Скриншоты





    Доп.инофрмация

    тема была пере залита, в связи с не соответствием характеристик оригинальной звуковой дорожки требованиям установленным для создания раздач
    Скачать .torrent

    Скачать торрент-файл бесплатно и на максимальной скорости!

    Как скачивать? · Что такое торрент? · Рейтинг и ограничения

    !ВНИМАНИЕ!
    Сайт не распространяет и не хранит электронные версии произведений, а занимается лишь лишь предоставлением доступа к создаваемому пользователями каталогу ссылок на торрент-файлы, которые содержат только списки хеш-сумм, убедительная просьба с жалобами обращаться напрямую к пользователю. Файлы для обмена на трекере предоставлены пользователями сайта, и администрация не несёт ответственности за их содержание. Просьба не заливать файлы, защищенные авторскими правами, а также файлы нелегального содержания!


    _________________
    [Профиль] [ЛС]
    Показать сообщения:    
    Ответить на тему

    Текущее время: Сегодня, в 21:52

    Часовой пояс: GMT + 2



    Вы не можете начинать темы
    Вы не можете отвечать на сообщения
    Вы не можете редактировать свои сообщения
    Вы не можете удалять свои сообщения
    Вы не можете голосовать в опросах
    Вы не можете прикреплять файлы к сообщениям
    Вы не можете скачивать файлы