BitTorrentTracker PerecTracker.org
BitTorrentTracker PerecTracker.org
    
Регистрация  ·  Вход
 
 · 
Забыли пароль?

  • Американський снайпер / American Sniper (Клінт Іствуд) [2014 р., екшн, біографічний, трилер, BDRip] DUB Ukr

    Ответить на тему
     
    Автор Сообщение

    older

    Создавать темы 15-Дек-2015 09:06

           

    [Цитировать]

    Американський снайпер / American Sniper

    Рік випуску: 2014
    Країна: США
    Кіностудія / кінокомпанія: Warner Bros., Village Roadshow Pictures, Mad Chance Productions
    Жанр: екшн, біографічний, трилер
    Тривалість: 02:12:39
    Субтитри: відсутні
    Переклад: дубльований (професійний)
    Аудіодоріжка: українська-Режисер: Клінт Іствуд
    Сценарій: Джейсон Хол, Кріс Кайл, Скотт МакЕвой
    Продюсер: Бредлі Купер, Клінт Іствуд, Ендрю Лазар-Світова прем'єра: 11 листопада 2014
    Обмеження за віком: немає- -Актори: Бредлі Купер, Сієнна Міллер, Кайл Ґаллнер, Бен Рід, Еліз Робертсон, Люк Саншайн, Трой Вінсент, Брендон Сальґадо, Кейр О'Доннелл, Марні Паттерсон-Сюжет: Він - морський піхотинець зі штату Техас на ім'я Кріс. Так склалося, що доля закинула його в Ірак. Там він побив своєрідний рекорд - убив найбільшу кількість супротивників. З його «результатами» було складно зрівнятися. Тому й прозвали його місцеві жителі дияволом. Але крім опису військових реалій, дій та операцій, тут наводяться спогади його дружини - жінки, якій довелося ділити свого коханого з війною. Кріс все більше і більше прив'язувався не тільки до тих людей, з якими йому довелося ділити скромне житло, обід і труднощі війни, а й до самої війни - до постійної боротьби за життя...-Формат: AVI
    Якість: BDRip
    Відео кодек: XviD
    Відео: 720x304 (2,35:1), 1176 kbps, 23.976 fps, 0.224 bit/pixel
    Аудіо: AC3, 48 kHz, 6 ch, 384 kbps-Джерело:

    MediaInfo

    Общее
    Полное имя                               : \American Sniper (2014) BDRip [UKR] [Hurtom].avi
    Формат                                   : AVI
    Формат/Информация                        : Audio Video Interleave
    Размер файла                             : 1,45 Гбайт
    Продолжительность                        : 2 ч. 12 м.
    Общий поток                              : 1569 Кбит/сек
    Программа кодирования                    : VirtualDubMod 1.5.10.3 | www.virtualdub-fr.org || (build 2550/release)
    Библиотека кодирования                   : VirtualDubMod build 2550/release
    Видео
    Идентификатор                            : 0
    Формат                                   : MPEG-4 Visual
    Профиль формата                          : Advanced Simple@L5
    Параметр BVOP формата                    : 1
    Параметр QPel формата                    : Нет
    Параметр GMC формата                     : Без точки перехода
    Параметр матрицы формата                 : Выборочная
    Идентификатор кодека                     : XVID
    Идентификатор кодека/Подсказка           : XviD
    Продолжительность                        : 2 ч. 12 м.
    Битрейт                                  : 1176 Кбит/сек
    Ширина                                   : 720 пикселей
    Высота                                   : 304 пикселя
    Соотношение сторон                       : 2,35:1
    Частота кадров                           : 23,976 кадра/сек
    Цветовое пространство                    : YUV
    Субдискретизация насыщенности            : 4:2:0
    Битовая глубина                          : 8 бит
    Тип развёртки                            : Прогрессивная
    Метод сжатия                             : С потерями
    Бит/(Пиксели*Кадры)                      : 0.224
    Размер потока                            : 1,09 Гбайт (75%)
    Библиотека кодирования                   : XviD 73
    Аудио
    Идентификатор                            : 1
    Формат                                   : AC-3
    Формат/Информация                        : Audio Coding 3
    Расширение режима                        : CM (complete main)
    Параметр Endianness формата              : Big
    Идентификатор кодека                     : 2000
    Продолжительность                        : 2 ч. 12 м.
    Вид битрейта                             : Постоянный
    Битрейт                                  : 384 Кбит/сек
    Каналы                                   : 6 каналов
    Расположение каналов                     : Front: L C R, Side: L R, LFE
    Частота                                  : 48,0 КГц
    Битовая глубина                          : 16 бит
    Метод сжатия                             : С потерями
    Размер потока                            : 364 Мбайт (24%)
    Выравнивание                             : Разделение по промежуткам
    Продолжительность промежутка             : 42  мс. (1,00 видеокадр)
    Время предзагрузки промежутка            : 500  мс.

    Скріншоти

    Скачать .torrent

    Скачать торрент-файл бесплатно и на максимальной скорости!

    Как скачивать? · Что такое торрент? · Рейтинг и ограничения

    !ВНИМАНИЕ!
    Сайт не распространяет и не хранит электронные версии произведений, а занимается лишь лишь предоставлением доступа к создаваемому пользователями каталогу ссылок на торрент-файлы, которые содержат только списки хеш-сумм, убедительная просьба с жалобами обращаться напрямую к пользователю. Файлы для обмена на трекере предоставлены пользователями сайта, и администрация не несёт ответственности за их содержание. Просьба не заливать файлы, защищенные авторскими правами, а также файлы нелегального содержания!


    _________________
    [Профиль] [ЛС]

    -746

    Создавать темы 03-Июн-2016 21:40 (спустя 5 месяцев 19 дней)

           

    Топік був перенесений з форуму Закордонне кіно українською у форум Фільми 2011-2015 українською

    rechyn

    _________________
    Как бы ты высоко не летал, не забывай, с кем ты ползал..
     
    Показать сообщения:    
    Ответить на тему

    Текущее время: Сегодня, в 10:49

    Часовой пояс: GMT + 2



    Вы не можете начинать темы
    Вы не можете отвечать на сообщения
    Вы не можете редактировать свои сообщения
    Вы не можете удалять свои сообщения
    Вы не можете голосовать в опросах
    Вы не можете прикреплять файлы к сообщениям
    Вы не можете скачивать файлы