BitTorrentTracker PerecTracker.org
BitTorrentTracker PerecTracker.org
    
Регистрация  ·  Вход
 
 · 
Забыли пароль?

  • Хмарний атлас / Cloud Atlas (Том Тиквер) [2012 р., пригодницький, драма, фантастика, BDRip] DUB Ukr + Original

    Ответить на тему
     
    Автор Сообщение

    older

    Создавать темы 15-Дек-2015 08:24

           

    [Цитировать]

    Хмарний атлас / Cloud Atlas

    Рік випуску: 2012
    Країна: США, Німеччина, Гонконг, Сінгапур
    Кіностудія / кінокомпанія: Cloud Atlas Productions, X-Filme Creative Pool, Anarchos Pictures
    Жанр: пригодницький, драма, фантастика
    Тривалість: 02:45:30
    Субтитри: відсутні
    Переклад: дубльований (професійний)
    Аудіодоріжка: українська, англійська-Режисер: Том Тиквер
    Сценарій: Лана Вачовскі, Том Тиквер, Енді Вачовскі
    Продюсер: Штефан Арндт, Алекс Боден, Девід Браун-Світова прем'єра: 8 вересня 2012
    Прем'єра в Україні: 8 листопада 2012, «B&H Film Distribution Company»
    Обмеження за віком: немає- -Актори: Том Генкс / Tom Hanks, Г'юґо Вівінґ / Hugo Weaving, Сьюзен Сарандон / Susan Sarandon, Джим Стерджесс / Jim Sturgess, Холлі Беррі / Halle Berry, Кіт Девід / Keith David, Г'ю Ґрант / Hugh Grant, Бен Уішоу / Ben Whishaw, Джим Броудбент / Jim Broadbent, Джеймс Д'Арсі / James D'Arcy-Сюжет: Фільм "Хмарний атлас" - це складна і заплутана картина, створена за мотивами однойменного роману Девіда Мітчела, сюжетна лінія якої складається з шести різних історій, які відбуваються в різний час - від минулого (середини 19-го століття) до майбутнього ( дві останні історії, герой яких знаходиться вже в постапокаліптичному режимі). Зв'язок між ними усіма - це головна дійова особа (у виконанні Тома Хенкса). Це різні люди, але одна і та ж душа реінкарнована шість разів, і волею долі кожне нове життя якимось чином пов'язана з попереднім ...-Формат: AVI
    Якість: BDRip
    Відео кодек: XviD
    Відео: 720x400 (16:9), 1602 kbps, 23.976 fps, 0.186 bit/pixel
    Аудіо 1: AC3, 48 kHz, 6 ch, 448 kbps - DUB
    Аудіо 2: AC3, 48 kHz, 6 ch, 448 kbps - Original-Джерело:

    MediaInfo

    Общее
    Полное имя                               : \Cloud Atlas (2012) BDRip [Open Matte] [Ukr.Eng] [Hurtom].avi
    Формат                                   : AVI
    Формат/Информация                        : Audio Video Interleave
    Профиль формата                          : OpenDML
    Размер файла                             : 2,91 Гбайт
    Продолжительность                        : 2 ч. 45 м.
    Общий поток                              : 2517 Кбит/сек
    Программа кодирования                    : VirtualDubMod 1.5.10.3 | www.virtualdub-fr.org || (build 2550/release)
    Библиотека кодирования                   : VirtualDubMod build 2550/release
    Видео
    Идентификатор                            : 0
    Формат                                   : MPEG-4 Visual
    Профиль формата                          : Advanced Simple@L5
    Параметр BVOP формата                    : 1
    Параметр QPel формата                    : Нет
    Параметр GMC формата                     : Без точки перехода
    Параметр матрицы формата                 : Default (H.263)
    Режим смешивания                         : Сжатый битовый поток
    Идентификатор кодека                     : XVID
    Идентификатор кодека/Подсказка           : XviD
    Продолжительность                        : 2 ч. 45 м.
    Битрейт                                  : 1602 Кбит/сек
    Ширина                                   : 720 пикселей
    Высота                                   : 400 пикселей
    Соотношение сторон                       : 16:9
    Частота кадров                           : 29,970 кадров/сек
    Цветовое пространство                    : YUV
    Субдискретизация насыщенности            : 4:2:0
    Битовая глубина                          : 8 бит
    Тип развёртки                            : Прогрессивная
    Метод сжатия                             : С потерями
    Бит/(Пиксели*Кадры)                      : 0.186
    Размер потока                            : 1,85 Гбайт (64%)
    Библиотека кодирования                   : XviD 1.2.1 (UTC 2008-12-04)
    Аудио #1
    Идентификатор                            : 1
    Формат                                   : AC-3
    Формат/Информация                        : Audio Coding 3
    Расширение режима                        : CM (complete main)
    Параметр Endianness формата              : Big
    Идентификатор кодека                     : 2000
    Продолжительность                        : 2 ч. 45 м.
    Вид битрейта                             : Постоянный
    Битрейт                                  : 448 Кбит/сек
    Каналы                                   : 6 каналов
    Расположение каналов                     : Front: L C R, Side: L R, LFE
    Частота                                  : 48,0 КГц
    Битовая глубина                          : 16 бит
    Метод сжатия                             : С потерями
    Размер потока                            : 530 Мбайт (18%)
    Выравнивание                             : Разделение по промежуткам
    Продолжительность промежутка             : 33  мс. (1,00 видеокадр)
    Время предзагрузки промежутка            : 500  мс.
    Аудио #2
    Идентификатор                            : 2
    Формат                                   : AC-3
    Формат/Информация                        : Audio Coding 3
    Расширение режима                        : CM (complete main)
    Параметр Endianness формата              : Big
    Идентификатор кодека                     : 2000
    Продолжительность                        : 2 ч. 45 м.
    Вид битрейта                             : Постоянный
    Битрейт                                  : 448 Кбит/сек
    Каналы                                   : 6 каналов
    Расположение каналов                     : Front: L C R, Side: L R, LFE
    Частота                                  : 48,0 КГц
    Битовая глубина                          : 16 бит
    Метод сжатия                             : С потерями
    Размер потока                            : 530 Мбайт (18%)
    Выравнивание                             : Разделение по промежуткам
    Продолжительность промежутка             : 33  мс. (1,00 видеокадр)
    Время предзагрузки промежутка            : 500  мс.

    Скріншоти

    Скачать .torrent

    Скачать торрент-файл бесплатно и на максимальной скорости!

    Как скачивать? · Что такое торрент? · Рейтинг и ограничения

    !ВНИМАНИЕ!
    Сайт не распространяет и не хранит электронные версии произведений, а занимается лишь лишь предоставлением доступа к создаваемому пользователями каталогу ссылок на торрент-файлы, которые содержат только списки хеш-сумм, убедительная просьба с жалобами обращаться напрямую к пользователю. Файлы для обмена на трекере предоставлены пользователями сайта, и администрация не несёт ответственности за их содержание. Просьба не заливать файлы, защищенные авторскими правами, а также файлы нелегального содержания!


    _________________
    [Профиль] [ЛС]

    -746

    Создавать темы 03-Июн-2016 21:40 (спустя 5 месяцев 19 дней)

           

    Топік був перенесений з форуму Закордонне кіно українською у форум Фільми 2011-2015 українською

    rechyn

    _________________
    Как бы ты высоко не летал, не забывай, с кем ты ползал..
     
    Показать сообщения:    
    Ответить на тему

    Текущее время: Сегодня, в 08:59

    Часовой пояс: GMT + 2



    Вы не можете начинать темы
    Вы не можете отвечать на сообщения
    Вы не можете редактировать свои сообщения
    Вы не можете удалять свои сообщения
    Вы не можете голосовать в опросах
    Вы не можете прикреплять файлы к сообщениям
    Вы не можете скачивать файлы