BitTorrentTracker PerecTracker.org
BitTorrentTracker PerecTracker.org
    
Регистрация  ·  Вход
 
 · 
Забыли пароль?

  • Откройте, Дед Мороз! (Ольга Субботина) [2007, комедия, мелодрамма, DVDRip]

    Ответить на тему
     
    Автор Сообщение

    rechyn

    Создавать темы 15-Дек-2015 07:41

           

    [Цитировать]

    Откройте, Дед Мороз
    Год выпуска: 2007
    Жанр: комедия, мелодрамма
    Продолжительность: 01:38:17.040 (147426 frames)
    Субтитры: нет
    Режиссер: Ольга Субботина
    В ролях: Любовь Толкалина, Константин Лавроненко, Марина Голуб, Сергей Баталов, Ирина Гринева, Артем Смола
    Описание: Эта история случилась в ночь с 31 декабря на 1 января . Молодая незамужняя женщина Женя, по старой традиции, готовились принимать гостей, поэтому с утра была занята на кухне. Нельзя сказать, что это доставляло ей огромную радость, но - традиция есть традиция. А маленький сын Жени Гриша, тоже по традиции, ждал Деда Мороза. Женя, как всегда, обещала сыну, что Дед Мороз обязательно придет, но семилетний Гриша уже мало верил в то, что подарок, который он непременно найдет утром под подушкой, будет именно от Деда Мороза.
    Качество: DVDRip
    Формат: AVI
    Видео кодек: XviD
    Аудио кодек: АС3
    Видео: 720x400 (1.80:1), 25 fps, XviD build 73 ~1727 kbps avg, 0.24 bit/pixel
    Аудио: 48 kHz, AC3 Dolby Digital, 3/2 (L,C,R,l,r) + LFE ch, ~384.00 kbps avg

    Скриншоты

    Медиаинфо

    F:\004 Мои раздачи\Откройте дед мороз 1,46\otkroite_ded_moroz_1.46_[torrents.ru]_by_bm11.avi
    General
    Complete name : F:\004 Мои раздачи\Откройте дед мороз 1,46\otkroite_ded_moroz_1.46_[torrents.ru]_by_bm11.avi
    Format : AVI
    Format/Info : Audio Video Interleave
    File size : 1.46 GiB
    Duration : 1h 38mn
    Overall bit rate : 2 121 Kbps
    Director : bm11
    Writing application : VirtualDubMod 1.5.10.3 | www.virtualdub-fr.org || (build 2550/release)
    Video
    Format : MPEG-4 Visual
    Format profile : Streaming Video@L1
    Format settings, BVOP : Yes
    Format settings, QPel : No
    Format settings, GMC : No warppoints
    Format settings, Matrix : Custom
    Codec ID : XVID
    Codec ID/Hint : XviD
    Duration : 1h 38mn
    Bit rate : 1 728 Kbps
    Width : 720 pixels
    Height : 400 pixels
    Display aspect ratio : 16/9
    Frame rate : 25.000 fps
    Resolution : 24 bits
    Colorimetry : 4:2:0
    Scan type : Progressive
    Bits/(Pixel*Frame) : 0.240
    Stream size : 1.19 GiB (81%)
    Writing library : XviD 73
    Audio
    Format : AC-3
    Format/Info : Audio Coding 3
    Codec ID : 2000
    Duration : 1h 38mn
    Bit rate mode : Constant
    Bit rate : 384 Kbps
    Channel(s) : 6 channels
    Channel positions : Front: L C R, Surround: L R, LFE
    Sampling rate : 48.0 KHz
    Stream size : 270 MiB (18%)
    Alignment : Split accross interleaves
    Interleave, duration : 40 ms (1.00 video frame)
    Interleave, preload duration : 500 ms
    Скачать .torrent

    Скачать торрент-файл бесплатно и на максимальной скорости!

    Как скачивать? · Что такое торрент? · Рейтинг и ограничения

    !ВНИМАНИЕ!
    Сайт не распространяет и не хранит электронные версии произведений, а занимается лишь лишь предоставлением доступа к создаваемому пользователями каталогу ссылок на торрент-файлы, которые содержат только списки хеш-сумм, убедительная просьба с жалобами обращаться напрямую к пользователю. Файлы для обмена на трекере предоставлены пользователями сайта, и администрация не несёт ответственности за их содержание. Просьба не заливать файлы, защищенные авторскими правами, а также файлы нелегального содержания!


    _________________
    [Профиль] [ЛС]

    -746

    Создавать темы 15-Дек-2015 18:10 (спустя 10 часов)

           

    Топик был перенесен из форума Наше кино в форум Новогодние релизы - Фильмы, Мультфильмы


    -sasha2006

    _________________
    Как бы ты высоко не летал, не забывай, с кем ты ползал..
     
    Показать сообщения:    
    Ответить на тему

    Текущее время: Сегодня, в 01:52

    Часовой пояс: GMT + 2



    Вы не можете начинать темы
    Вы не можете отвечать на сообщения
    Вы не можете редактировать свои сообщения
    Вы не можете удалять свои сообщения
    Вы не можете голосовать в опросах
    Вы не можете прикреплять файлы к сообщениям
    Вы не можете скачивать файлы