BitTorrentTracker PerecTracker.org
BitTorrentTracker PerecTracker.org
    
Регистрация  ·  Вход
 
 · 
Забыли пароль?

  • Перший месник: Друга вiйна / Captain America: The Winter Soldier (Ентоні Руссо, Джо Руссо) [2014 р., екшн, пригодницький, фантастика, BDRip] DUB (iTunes) Ukr

    Ответить на тему
     
    Автор Сообщение

    older

    Создавать темы 15-Дек-2015 06:01

           

    [Цитировать]

    Перший месник: Друга вiйна / Captain America: The Winter Soldier

    Рік випуску: 2014
    Країна: США
    Кіностудія / кінокомпанія: Marvel Entertainment, Marvel Studios, Perception
    Жанр: екшн, пригодницький, фантастика
    Тривалість: 02:15:58
    Субтитри: відсутні
    Переклад: дубльований (професійний) - iTunes
    Аудіодоріжка: українська-Режисер: Ентоні Руссо, Джо Руссо
    Сценарій: Крістофер Маркус, Стівен МакФілі, Джо Саймон
    Продюсер: Кевін Файг, Вікторія Алонсо, Мітчелл Белл-Світова прем'єра: 13 березня 2014
    Прем'єра в Україні: 3 квітня 2014, «B&H Film Distribution Company»
    Обмеження за віком: немає- -Актори: Кріс Еванс, Скарлет Йоганссон, Роберт Редфорд, Семюель Л. Джексон, Себастьян Стен, Ентоні Макі, Кобі Смолдерс, Френк Ґрілло, Максиміліано Ернандес, Емілі ВанКемп-Сюжет: Після безпрецедентних подій, які вперше зібрали разом команду Месників, Стів Роджерс, відомий як Капітан Америка, осідає у Вашинґтоні і намагається пристосуватися до життя в сучасному світі. Але спокій герою тільки сниться - намагаючись допомогти колезі з агентства Щ. И. Т, Стів опиняється у центрі подій, які загрожують катастрофою світового масштабу. Для того, щоб викрити злочинну змову, Капітан Америка об'єднується з Чорною вдовою і з новим соратником, відомим як Яструб. Проте ніхто з них навіть не підозрює, на що здатний новий ворог.-Формат: AVI
    Якість: BDRip
    Відео кодек: XviD
    Відео: 720x304 (2,40:1), 1333 kbps, 23.976 fps, 0.254 bit/pixel
    Аудіо: AC3, 48 kHz, 6 ch, 384 kbps-Джерело:

    Реліз

    Подяки:
    - за відеоріп п. 11FrYkT
    - за доріжку п. karvai0

    MediaInfo

    Общее
    Полное имя                               : \Captain America. The Winter Soldier (2014) BDRip [UKR] [Hurtom] by patriot2305.avi
    Формат                                   : AVI
    Формат/Информация                        : Audio Video Interleave
    Размер файла                             : 1,64 Гбайт
    Продолжительность                        : 2 ч. 15 м.
    Общий поток                              : 1727 Кбит/сек
    Название фильма                          : Перший месник: Друга вiйна / Captain America: The Winter Soldier (2014) BDRip
    Режиссёр                                 : patriot2305
    Программа кодирования                    : VirtualDubModUkr 1.5.10.2 (build 2542/release)
    Библиотека кодирования                   : VirtualDubMod build 2542/release
    Видео
    Идентификатор                            : 0
    Формат                                   : MPEG-4 Visual
    Профиль формата                          : Advanced Simple@L5
    Параметр BVOP формата                    : 1
    Параметр QPel формата                    : Нет
    Параметр GMC формата                     : Без точки перехода
    Параметр матрицы формата                 : Default (H.263)
    Идентификатор кодека                     : XVID
    Идентификатор кодека/Подсказка           : XviD
    Продолжительность                        : 2 ч. 15 м.
    Битрейт                                  : 1333 Кбит/сек
    Ширина                                   : 720 пикселей
    Высота                                   : 304 пикселя
    Соотношение сторон                       : 2,40:1
    Частота кадров                           : 23,976 кадра/сек
    Цветовое пространство                    : YUV
    Субдискретизация насыщенности            : 4:2:0
    Битовая глубина                          : 8 бит
    Тип развёртки                            : Прогрессивная
    Метод сжатия                             : С потерями
    Бит/(Пиксели*Кадры)                      : 0.254
    Размер потока                            : 1,27 Гбайт (77%)
    Библиотека кодирования                   : XviD 64
    Аудио
    Идентификатор                            : 1
    Формат                                   : AC-3
    Формат/Информация                        : Audio Coding 3
    Расширение режима                        : CM (complete main)
    Параметр Endianness формата              : Big
    Идентификатор кодека                     : 2000
    Продолжительность                        : 2 ч. 15 м.
    Вид битрейта                             : Постоянный
    Битрейт                                  : 384 Кбит/сек
    Каналы                                   : 6 каналов
    Расположение каналов                     : Front: L C R, Side: L R, LFE
    Частота                                  : 48,0 КГц
    Битовая глубина                          : 16 бит
    Метод сжатия                             : С потерями
    Размер потока                            : 373 Мбайт (22%)
    Выравнивание                             : Разделение по промежуткам
    Продолжительность промежутка             : 42  мс. (1,00 видеокадр)
    Время предзагрузки промежутка            : 500  мс.

    Скріншоти

    Скачать .torrent

    Скачать торрент-файл бесплатно и на максимальной скорости!

    Как скачивать? · Что такое торрент? · Рейтинг и ограничения

    !ВНИМАНИЕ!
    Сайт не распространяет и не хранит электронные версии произведений, а занимается лишь лишь предоставлением доступа к создаваемому пользователями каталогу ссылок на торрент-файлы, которые содержат только списки хеш-сумм, убедительная просьба с жалобами обращаться напрямую к пользователю. Файлы для обмена на трекере предоставлены пользователями сайта, и администрация не несёт ответственности за их содержание. Просьба не заливать файлы, защищенные авторскими правами, а также файлы нелегального содержания!


    _________________
    [Профиль] [ЛС]

    -746

    Создавать темы 03-Июн-2016 21:40 (спустя 5 месяцев 19 дней)

           

    Топік був перенесений з форуму Закордонне кіно українською у форум Фільми 2011-2015 українською

    rechyn

    _________________
    Как бы ты высоко не летал, не забывай, с кем ты ползал..
     
    Показать сообщения:    
    Ответить на тему

    Текущее время: Сегодня, в 02:46

    Часовой пояс: GMT + 2



    Вы не можете начинать темы
    Вы не можете отвечать на сообщения
    Вы не можете редактировать свои сообщения
    Вы не можете удалять свои сообщения
    Вы не можете голосовать в опросах
    Вы не можете прикреплять файлы к сообщениям
    Вы не можете скачивать файлы