BitTorrentTracker PerecTracker.org
BitTorrentTracker PerecTracker.org
    
Регистрация  ·  Вход
 
 · 
Забыли пароль?

  • Страховик / Autómata (Ґейб Ібаньєс) [2014 р., фантастика, трилер, BDRip] DUB (Line In) Ukr

    Ответить на тему
     
    Автор Сообщение

    older

    Создавать темы 14-Дек-2015 18:27

           

    [Цитировать]

    Страховик / Autómata

    Рік випуску: 2014
    Країна: Іспанія, Болгарія
    Кіностудія / кінокомпанія: Green Moon, Nu Boyana Viburno
    Жанр: фантастика, трилер
    Тривалість: 01:49:54
    Субтитри: відсутні
    Переклад: дубльований (професійний) - Line In
    Аудіодоріжка: українська-Режисер: Ґейб Ібаньєс
    Сценарій: Ґейб Ібаньєс, Ігор Легаррета, Хав'єр Санчес Донате
    Продюсер: Антоніо Бандерас, Сандра Ерміда, Денні Лернер-Світова прем'єра: 20 вересня 2014
    Прем'єра в Україні: 16 жовтня 2014, «Аврора Фільм»
    Обмеження за віком: немає- -Актори: Антоніо Бандерас / Antonio Banderas, Бірґітта Йорт Серенсен / Birgitte Hjort Sørensen, Мелані Ґріфіт / Melanie Griffith, Ділан МакДермотт / Dylan McDermott, Роберт Форстер / Robert Forster, Тім МакІннерні / Tim McInnerny, Енді Найман / Andy Nyman-Сюжет: Дія фільму відбувається у далекому майбутньому, коли наш світ зазнав величезних змін – тепер роботи стали майже повноцінними громадянами. Вони гуляють вулицями, працюють на виробництві, допомагають людям у побуті і роблять усе, щоб полегшити існування та життєдіяльність людини. Жак Вокан працює на велику корпорацію, яка є провідним виробником роботів. Їхня продукція – це найбільш якісні та відповідальні роботи. Продаж робототехніки невпинно зростає, у свою чергу Жак займається страхуванням різноманітних випадків, пов’язаних із несанкціонованим використанням, або поведінкою роботів. Цілком задоволений своєю роботою Жак, несподівано стикається з інформацією, яка повністю змінює його ставлення до робототехніки.
    Виявляється, що роботи стали однією зі сходинок змови, спрямованої на повне знищення людства. Жак розуміє, що йому необхідно розкрити змову та врятувати людей. Для цього йому доведеться вступити в сутичку з могутньою корпорацією.-Формат: AVI
    Якість: BDRip
    Відео кодек: XviD
    Відео: 720x304 (2,35:1), 1690 kbps, 23.976 fps, 0.322 bit/pixel
    Аудіо : AC3, 48 kHz, 2 ch, 192 kbps-Джерело:

    MediaInfo

    Общее
    Полное имя                               : \Automata (2014) BDRip [UKR] [Hurtom].avi
    Формат                                   : AVI
    Формат/Информация                        : Audio Video Interleave
    Размер файла                             : 1,45 Гбайт
    Продолжительность                        : 1 ч. 49 м.
    Общий поток                              : 1891 Кбит/сек
    Программа кодирования                    : VirtualDubModUkr 1.5.10.2 (build 2542/release)
    Библиотека кодирования                   : VirtualDubMod build 2542/release
    Видео
    Идентификатор                            : 0
    Формат                                   : MPEG-4 Visual
    Профиль формата                          : Advanced Simple@L5
    Параметр BVOP формата                    : 1
    Параметр QPel формата                    : Нет
    Параметр GMC формата                     : Без точки перехода
    Параметр матрицы формата                 : Default (H.263)
    Идентификатор кодека                     : XVID
    Идентификатор кодека/Подсказка           : XviD
    Продолжительность                        : 1 ч. 49 м.
    Битрейт                                  : 1690 Кбит/сек
    Ширина                                   : 720 пикселей
    Высота                                   : 304 пикселя
    Соотношение сторон                       : 2,35:1
    Частота кадров                           : 23,976 кадра/сек
    Цветовое пространство                    : YUV
    Субдискретизация насыщенности            : 4:2:0
    Битовая глубина                          : 8 бит
    Тип развёртки                            : Прогрессивная
    Метод сжатия                             : С потерями
    Бит/(Пиксели*Кадры)                      : 0.322
    Размер потока                            : 1,30 Гбайт (89%)
    Библиотека кодирования                   : XviD 1.2.1 (UTC 2008-12-04)
    Аудио
    Идентификатор                            : 1
    Формат                                   : AC-3
    Формат/Информация                        : Audio Coding 3
    Расширение режима                        : CM (complete main)
    Параметр Endianness формата              : Big
    Идентификатор кодека                     : 2000
    Продолжительность                        : 1 ч. 49 м.
    Вид битрейта                             : Постоянный
    Битрейт                                  : 192 Кбит/сек
    Каналы                                   : 2 канала
    Расположение каналов                     : Front: L R
    Частота                                  : 48,0 КГц
    Битовая глубина                          : 16 бит
    Метод сжатия                             : С потерями
    Размер потока                            : 151 Мбайт (10%)
    Выравнивание                             : Разделение по промежуткам
    Продолжительность промежутка             : 42  мс. (1,00 видеокадр)
    Время предзагрузки промежутка            : 500  мс.

    Скріншоти

    Скачать .torrent

    Скачать торрент-файл бесплатно и на максимальной скорости!

    Как скачивать? · Что такое торрент? · Рейтинг и ограничения

    !ВНИМАНИЕ!
    Сайт не распространяет и не хранит электронные версии произведений, а занимается лишь лишь предоставлением доступа к создаваемому пользователями каталогу ссылок на торрент-файлы, которые содержат только списки хеш-сумм, убедительная просьба с жалобами обращаться напрямую к пользователю. Файлы для обмена на трекере предоставлены пользователями сайта, и администрация не несёт ответственности за их содержание. Просьба не заливать файлы, защищенные авторскими правами, а также файлы нелегального содержания!


    _________________
    [Профиль] [ЛС]

    -746

    Создавать темы 03-Июн-2016 21:40 (спустя 5 месяцев 20 дней)

           

    Топік був перенесений з форуму Закордонне кіно українською у форум Фільми 2011-2015 українською

    rechyn

    _________________
    Как бы ты высоко не летал, не забывай, с кем ты ползал..
     
    Показать сообщения:    
    Ответить на тему

    Текущее время: Сегодня, в 15:52

    Часовой пояс: GMT + 2



    Вы не можете начинать темы
    Вы не можете отвечать на сообщения
    Вы не можете редактировать свои сообщения
    Вы не можете удалять свои сообщения
    Вы не можете голосовать в опросах
    Вы не можете прикреплять файлы к сообщениям
    Вы не можете скачивать файлы