BitTorrentTracker PerecTracker.org
BitTorrentTracker PerecTracker.org
    
Регистрация  ·  Вход
 
 · 
Забыли пароль?

  • Змінюючи реальність / The Adjustment Bureau (Джордж Нолфі) [2011 р., романтичний, фантастика, трилер, BDRip] MVO (Україна) Ukr

    Ответить на тему
     
    Автор Сообщение

    older

    Создавать темы 14-Дек-2015 09:13

           

    [Цитировать]

    Змінюючи реальність / The Adjustment Bureau

    Рік випуску: 2011
    Країна: США
    Кіностудія / кінокомпанія: Universal Pictures, Media Rights Capital, Gambit Pictures
    Жанр: романтичний, фантастика, трилер
    Тривалість: 01:45:50
    Субтитри: відсутні
    Переклад: багатоголосий, закадровий (професійний) - Україна
    Аудіодоріжка: українська-Режисер: Джордж Нолфі
    Сценарій: Джордж Нолфі, Філіп К. Дік
    Продюсер: Білл Карраро, Майкл Хекетт, Кріс Мур-Світова прем'єра: 26 лютого 2011
    Прем'єра в Україні: 3 березня 2011
    Обмеження за віком: немає- -Актори: Емілі Блант, Мет Деймон, Деніел Дей Кім, Крістін Лукас, Майкл Келлі, Ентоні Макі, Теренс Стемп, Джон Слеттері-Сюжет: Випадково конґресмен Девід Норріс дізнається, що світ рухається за заздалегідь написаному плану, за виконанням якого стежать в Бюро Коригувань, що володіють надприродними здібностями. Як на зло, план не передбачає подальших перетинів з балериною Елізою, в яку політик закоханий. Девід заручається підтримкою одного з агентів Бюро і починає нерівну боротьбу з іншими, відстоюючи свободу вибору і особисте щастя...-Формат: AVI
    Якість: BDRip
    Відео кодек: XviD
    Відео: 704x384 (1,85:1), 1756 kbps, 23.976 fps, 0.271 bit/pixel
    Аудіо : AC3, 48 kHz, 2 ch, 192 kbps-Джерело:

    MediaInfo

    Общее
    Полное имя                               : \The Adjustment Bureau (2011) BDRip [ukr, eng, sub ukr, eng] [Hurtom].avi
    Формат                                   : AVI
    Формат/Информация                        : Audio Video Interleave
    Размер файла                             : 1,45 Гбайт
    Продолжительность                        : 1 ч. 45 м.
    Общий поток                              : 1958 Кбит/сек
    Программа кодирования                    : VirtualDubMod 1.5.10.2 (build 2540/release)
    Библиотека кодирования                   : VirtualDubMod build 2540/release
    Видео
    Идентификатор                            : 0
    Формат                                   : MPEG-4 Visual
    Профиль формата                          : Advanced Simple@L5
    Параметр BVOP формата                    : 1
    Параметр QPel формата                    : Нет
    Параметр GMC формата                     : Без точки перехода
    Параметр матрицы формата                 : Default (MPEG)
    Идентификатор кодека                     : XVID
    Идентификатор кодека/Подсказка           : XviD
    Продолжительность                        : 1 ч. 45 м.
    Битрейт                                  : 1756 Кбит/сек
    Ширина                                   : 704 пикселя
    Высота                                   : 384 пикселя
    Соотношение сторон                       : 1,85:1
    Частота кадров                           : 23,976 кадра/сек
    Цветовое пространство                    : YUV
    Субдискретизация насыщенности            : 4:2:0
    Битовая глубина                          : 8 бит
    Тип развёртки                            : Прогрессивная
    Метод сжатия                             : С потерями
    Бит/(Пиксели*Кадры)                      : 0.271
    Размер потока                            : 1,30 Гбайт (90%)
    Библиотека кодирования                   : XviD 65
    Аудио
    Идентификатор                            : 1
    Формат                                   : AC-3
    Формат/Информация                        : Audio Coding 3
    Расширение режима                        : CM (complete main)
    Параметр Endianness формата              : Big
    Идентификатор кодека                     : 2000
    Продолжительность                        : 1 ч. 45 м.
    Вид битрейта                             : Постоянный
    Битрейт                                  : 192 Кбит/сек
    Каналы                                   : 2 канала
    Расположение каналов                     : Front: L R
    Частота                                  : 48,0 КГц
    Битовая глубина                          : 16 бит
    Метод сжатия                             : С потерями
    Размер потока                            : 145 Мбайт (10%)
    Выравнивание                             : Разделение по промежуткам
    Продолжительность промежутка             : 42  мс. (1,00 видеокадр)
    Время предзагрузки промежутка            : 500  мс.

    Скріншоти

    Скачать .torrent

    Скачать торрент-файл бесплатно и на максимальной скорости!

    Как скачивать? · Что такое торрент? · Рейтинг и ограничения

    !ВНИМАНИЕ!
    Сайт не распространяет и не хранит электронные версии произведений, а занимается лишь лишь предоставлением доступа к создаваемому пользователями каталогу ссылок на торрент-файлы, которые содержат только списки хеш-сумм, убедительная просьба с жалобами обращаться напрямую к пользователю. Файлы для обмена на трекере предоставлены пользователями сайта, и администрация не несёт ответственности за их содержание. Просьба не заливать файлы, защищенные авторскими правами, а также файлы нелегального содержания!


    _________________
    [Профиль] [ЛС]

    -746

    Создавать темы 03-Июн-2016 21:40 (спустя 5 месяцев 20 дней)

           

    Топік був перенесений з форуму Закордонне кіно українською у форум Фільми 2011-2015 українською

    rechyn

    _________________
    Как бы ты высоко не летал, не забывай, с кем ты ползал..
     
    Показать сообщения:    
    Ответить на тему

    Текущее время: Сегодня, в 12:38

    Часовой пояс: GMT + 2



    Вы не можете начинать темы
    Вы не можете отвечать на сообщения
    Вы не можете редактировать свои сообщения
    Вы не можете удалять свои сообщения
    Вы не можете голосовать в опросах
    Вы не можете прикреплять файлы к сообщениям
    Вы не можете скачивать файлы