BitTorrentTracker PerecTracker.org
BitTorrentTracker PerecTracker.org
    
Регистрация  ·  Вход
 
 · 
Забыли пароль?

  • Нескорений / Unbroken (Анджеліна Джолі) [2014 р., біографічний, драма, спорт, воєнний, BDRip] DUB (Line In) Ukr

    Ответить на тему
     
    Автор Сообщение

    older

    Создавать темы 14-Дек-2015 06:28

           

    [Цитировать]

    Нескорений / Unbroken

    Рік випуску: 2014
    Країна: США
    Кіностудія / кінокомпанія: 3 Arts Entertainment, Jolie Pas, Legendary Pictures
    Жанр: біографічний, драма, спорт, воєнний
    Тривалість: 02:17:28
    Субтитри: відсутні
    Переклад: дубльований (професійний) - Line In
    Аудіодоріжка: українська-Режисер: Анджеліна Джолі
    Сценарій: Джоел Коен, Ітан Коен, Річард ЛаГравенес
    Продюсер: Анджеліна Джолі, Клейтон Таунсенд, Меттью Баер-Світова прем'єра: 17 листопада 2014
    Прем'єра в Україні: 5 лютого 2015, «B&H Film Distribution Company»
    Обмеження за віком: немає- -Актори: Джек О`Конелл / Jack O'Connell, Донал Ґлісон / Domhnall Gleeson, Такамаса Ісіхара / Takamasa Ishihara, Ґарет Гедлунд / Garrett Hedlund, Фінн Вітрок / Finn Wittrock, Джей Кортні / Jai Courtney, Алекс Рассел / Alex Russell-Сюжет: В основі фільму лежить захоплива біографія олімпійського чемпіона Луї Замперіні, який молодим хлопцем потрапляє на фронти Другої Світової війни. Він пройшов крізь полон, голод, жах і пекло японських тортур, він вижив і повернувся. Якщо ти витримаєш – ти переможеш!-Формат: AVI
    Якість: BDRip
    Відео кодек: XviD
    Відео: 720x304 (2,35:1), 1312 kbps, 23.976 fps, 0.250 bit/pixel
    Аудіо : AC3, 48 kHz, 2 ch, 192 kbps-Джерело:

    MediaInfo

    Общее
    Полное имя                               : \Unbroken (2014) BDRip [UKR] [Hurtom].avi
    Формат                                   : AVI
    Формат/Информация                        : Audio Video Interleave
    Размер файла                             : 1,45 Гбайт
    Продолжительность                        : 2 ч. 17 м.
    Общий поток                              : 1514 Кбит/сек
    Программа кодирования                    : VirtualDubMod 1.5.10.2 (build 2540/release)
    Библиотека кодирования                   : VirtualDubMod build 2540/release
    Видео
    Идентификатор                            : 0
    Формат                                   : MPEG-4 Visual
    Профиль формата                          : Advanced Simple@L5
    Параметр BVOP формата                    : 1
    Параметр QPel формата                    : Нет
    Параметр GMC формата                     : Без точки перехода
    Параметр матрицы формата                 : Выборочная
    Идентификатор кодека                     : XVID
    Идентификатор кодека/Подсказка           : XviD
    Продолжительность                        : 2 ч. 17 м.
    Битрейт                                  : 1312 Кбит/сек
    Ширина                                   : 720 пикселей
    Высота                                   : 304 пикселя
    Соотношение сторон                       : 2,35:1
    Частота кадров                           : 23,976 кадра/сек
    Цветовое пространство                    : YUV
    Субдискретизация насыщенности            : 4:2:0
    Битовая глубина                          : 8 бит
    Тип развёртки                            : Прогрессивная
    Метод сжатия                             : С потерями
    Бит/(Пиксели*Кадры)                      : 0.250
    Размер потока                            : 1,26 Гбайт (87%)
    Библиотека кодирования                   : XviD 64
    Аудио
    Идентификатор                            : 1
    Формат                                   : AC-3
    Формат/Информация                        : Audio Coding 3
    Расширение режима                        : CM (complete main)
    Параметр Endianness формата              : Big
    Идентификатор кодека                     : 2000
    Продолжительность                        : 2 ч. 17 м.
    Вид битрейта                             : Постоянный
    Битрейт                                  : 192 Кбит/сек
    Каналы                                   : 2 канала
    Расположение каналов                     : Front: L R
    Частота                                  : 48,0 КГц
    Битовая глубина                          : 16 бит
    Метод сжатия                             : С потерями
    Задержка видео                           : 24 мс.
    Размер потока                            : 189 Мбайт (13%)
    Выравнивание                             : Разделение по промежуткам
    Продолжительность промежутка             : 42  мс. (1,00 видеокадр)
    Время предзагрузки промежутка            : 500  мс.

    Скріншоти

    Скачать .torrent

    Скачать торрент-файл бесплатно и на максимальной скорости!

    Как скачивать? · Что такое торрент? · Рейтинг и ограничения

    !ВНИМАНИЕ!
    Сайт не распространяет и не хранит электронные версии произведений, а занимается лишь лишь предоставлением доступа к создаваемому пользователями каталогу ссылок на торрент-файлы, которые содержат только списки хеш-сумм, убедительная просьба с жалобами обращаться напрямую к пользователю. Файлы для обмена на трекере предоставлены пользователями сайта, и администрация не несёт ответственности за их содержание. Просьба не заливать файлы, защищенные авторскими правами, а также файлы нелегального содержания!


    _________________
    [Профиль] [ЛС]

    -746

    Создавать темы 03-Июн-2016 21:40 (спустя 5 месяцев 20 дней)

           

    Топік був перенесений з форуму Закордонне кіно українською у форум Фільми 2011-2015 українською

    rechyn

    _________________
    Как бы ты высоко не летал, не забывай, с кем ты ползал..
     
    Показать сообщения:    
    Ответить на тему

    Текущее время: Сегодня, в 14:36

    Часовой пояс: GMT + 2



    Вы не можете начинать темы
    Вы не можете отвечать на сообщения
    Вы не можете редактировать свои сообщения
    Вы не можете удалять свои сообщения
    Вы не можете голосовать в опросах
    Вы не можете прикреплять файлы к сообщениям
    Вы не можете скачивать файлы