BitTorrentTracker PerecTracker.org
BitTorrentTracker PerecTracker.org
    
Регистрация  ·  Вход
 
 · 
Забыли пароль?

  • [ATV3] Виктория Сикрет Fashion-шоу 2015 / Victoria\'s Secret Fashion Show 2015 (Хэмиш Гамильтон / Hamish Hamilton ) [2015, США, Fashion-шоу, HDTVRip, HD (1080p)] Original

    Ответить на тему
     
    Автор Сообщение

    Flirldrerve

    Создавать темы 13-Дек-2015 22:21

           

    [Цитировать]

    Виктория Сикрет Fashion-шоу 2015 / Victoria's Secret Fashion Show 2015-Год выпуска: 2015
    Страна: США
    Жанр: Fashion-шоу
    Продолжительность: 00:42:17
    Перевод: Нет
    Оригинальная аудиодорожка: Есть
    Cубтитры: Нет
    Режиссёр: Хэмиш Гамильтон
    Мировая премьера: 09 декабзя 2015
    Описание: Раз в году модный мир с нетерпением ожидает явления ангелов Victoria Secret – традиционного феерического шоу от знаменитой бельевой марки. Для любой модели участие в показе VS – заветная мечта и показатель успеха в профессии, так как из года в год в дефиле участвуют лишь лучшие из лучших. В этом году они демонстрировали новую коллекцию марки в сопровождении песен Селены Гомес, Элли Голдинг и The Weeknd.-Качество исходника: HDTVRip 1080p
    Качество: HDTVRip
    Тип: HD (1080p)
    Контейнер: M4V
    Видео: H.264, 1920x1080, 16:9, 13.9 Mbps, 29.970 fps
    Аудио 1: Английский/Оригинальная дорожка , AAC / 2.0 / 157 Kbps / 48.0 KHz
    Аудио 2: Английский/Оригинальная дорожка , AC-3 / 5.1 / 384 Kbps / 48.0 KHz
    -

    iTunes Meta Tags

    Sort Name: Victoria\'s Secret Fashion Show 2015
    Director: Hamish Hamilton
    Studio: TV CBS
    Long Description: Раз в году модный мир с нетерпением ожидает явления ангелов Victoria Secret – традиционного феерического шоу от знаменитой бельевой марки. Для любой модели участие в показе VS – заветная мечта и показатель успеха в профессии, так как из года в год в дефиле участвуют лишь лучшие из лучших. В этом году они демонстрировали новую коллекцию марки в сопровождении песен Селены Гомес, Элли Голдинг и The Weeknd.
    Description: Раз в году модный мир с нетерпением ожидает явления ангелов Victoria Secret – традиционного феерического шоу от знаменитой бельевой марки.
    Release Date: 2013-12-09T08:00:00Z
    Genre: Fashion Show
    Artist: Hamish Hamilton
    Name: Victoria\'s Secret Fashion Show 2015

    MediaInfo

    General
    Complete name : /Users/imac/HandBrake/The.Victorias.Secret.Fashion.Show.1080p.m4v
    Format : MPEG-4
    Codec ID : M4V
    File size : 4.27 GiB
    Duration : 42mn 17s
    Overall bit rate mode : Variable
    Overall bit rate : 14.4 Mbps
    Movie name : Victoria\'s Secret Fashion Show 2015
    Performer : Hamish Hamilton
    Director : Hamish Hamilton
    Production studio : TV CBS
    Genre : Fashion Show
    ContentType : Short Film
    Description : Раз в году модный мир с нетерпением ожидает явления ангелов Victoria Secret – традиционного феерического шоу от знаменитой бельевой марки.
    Recorded date : UTC 2013-12-09 08:00:00
    Encoded date : UTC 2015-12-13 10:41:05
    Tagged date : UTC 2015-12-13 10:46:19
    Cover : Yes
    Rating : None
    Title/Sort : Victoria\'s Secret Fashion Show 2015
    LongDescription : Раз в году модный мир с нетерпением ожидает явления ангелов Victoria Secret – традиционного феерического шоу от знаменитой бельевой марки. Для любой модели участие в показе VS – заветная мечта и показатель успеха в профессии, так как из года в год в дефиле участвуют лишь лучшие из лучших. В этом году они демонстрировали новую коллекцию марки в сопровождении песен Селены Гомес, Элли Голдинг и The Weeknd.
    Video
    ID : 1
    Format : AVC
    Format/Info : Advanced Video Codec
    Format profile : High@L4.1
    Format settings, CABAC : Yes
    Format settings, ReFrames : 4 frames
    Codec ID : avc1
    Codec ID/Info : Advanced Video Coding
    Duration : 42mn 17s
    Bit rate : 13.9 Mbps
    Width : 1 920 pixels
    Height : 1 080 pixels
    Display aspect ratio : 16:9
    Frame rate mode : Variable
    Frame rate : 29.970 fps
    Minimum frame rate : 29.412 fps
    Maximum frame rate : 30.303 fps
    Color space : YUV
    Chroma subsampling : 4:2:0
    Bit depth : 8 bits
    Scan type : Progressive
    Bits/(Pixel*Frame) : 0.224
    Stream size : 4.11 GiB (96%)
    Title : Main Program
    Writing library : x264 core 148 r2638 7599210
    Encoding settings : cabac=1 / ref=4 / deblock=1:0:0 / analyse=0x3:0x113 / me=umh / subme=8 / psy=1 / psy_rd=1.00:0.00 / mixed_ref=1 / me_range=16 / chroma_me=1 / trellis=1 / 8x8dct=1 / cqm=0 / deadzone=21,11 / fast_pskip=1 / chroma_qp_offset=-2 / threads=18 / lookahead_threads=3 / sliced_threads=0 / nr=0 / decimate=1 / interlaced=0 / bluray_compat=0 / constrained_intra=0 / bframes=3 / b_pyramid=2 / b_adapt=2 / b_bias=0 / direct=3 / weightb=1 / open_gop=0 / weightp=2 / keyint=250 / keyint_min=25 / scenecut=40 / intra_refresh=0 / rc_lookahead=50 / rc=crf / mbtree=1 / crf=19.0 / qcomp=0.60 / qpmin=0 / qpmax=69 / qpstep=4 / ip_ratio=1.40 / aq=1:1.00
    Language : English
    Encoded date : UTC 2015-12-13 10:41:05
    Tagged date : UTC 2015-12-13 10:41:09
    Color range : Limited
    Matrix coefficients : BT.709
    Audio #1
    ID : 2
    Format : AAC
    Format/Info : Advanced Audio Codec
    Format profile : LC
    Codec ID : 40
    Duration : 42mn 17s
    Bit rate mode : Variable
    Bit rate : 157 Kbps
    Maximum bit rate : 229 Kbps
    Channel(s) : 2 channels
    Channel positions : Front: L R
    Sampling rate : 48.0 KHz
    Frame rate : 46.875 fps (1024 spf)
    Compression mode : Lossy
    Stream size : 47.5 MiB (1%)
    Title : English Stereo
    Language : English
    Default : Yes
    Alternate group : 1
    Encoded date : UTC 2015-12-13 10:45:33
    Tagged date : UTC 2015-12-13 10:45:35
    Fallback From : 3
    Audio #2
    ID : 3
    Format : AC-3
    Format/Info : Audio Coding 3
    Mode extension : CM (complete main)
    Format settings, Endianness : Big
    Codec ID : ac-3
    Duration : 42mn 17s
    Bit rate mode : Constant
    Bit rate : 384 Kbps
    Channel(s) : 6 channels
    Channel positions : Front: L C R, Side: L R, LFE
    Sampling rate : 48.0 KHz
    Frame rate : 31.250 fps (1536 spf)
    Bit depth : 16 bits
    Compression mode : Lossy
    Stream size : 116 MiB (3%)
    Title : English DD 5.1
    Language : English
    Default : Inherited From: 2
    Alternate group : 1
    Encoded date : UTC 2015-12-13 10:45:33
    Tagged date : UTC 2015-12-13 10:45:35
    Fallback To : 2

    Скриншоты

    -

    Релиз подготовлен для просмотра на Apple TV, iPad, iPhone, iPod Touch.
    Для просмотра данного релиза на компьютере с ОС Windows рекомендуется использовать VLC media player
    Скачать .torrent

    Скачать торрент-файл бесплатно и на максимальной скорости!

    Как скачивать? · Что такое торрент? · Рейтинг и ограничения

    !ВНИМАНИЕ!
    Сайт не распространяет и не хранит электронные версии произведений, а занимается лишь лишь предоставлением доступа к создаваемому пользователями каталогу ссылок на торрент-файлы, которые содержат только списки хеш-сумм, убедительная просьба с жалобами обращаться напрямую к пользователю. Файлы для обмена на трекере предоставлены пользователями сайта, и администрация не несёт ответственности за их содержание. Просьба не заливать файлы, защищенные авторскими правами, а также файлы нелегального содержания!


    _________________
    [Профиль] [ЛС]
    Показать сообщения:    
    Ответить на тему

    Текущее время: Сегодня, в 16:35

    Часовой пояс: GMT + 2



    Вы не можете начинать темы
    Вы не можете отвечать на сообщения
    Вы не можете редактировать свои сообщения
    Вы не можете удалять свои сообщения
    Вы не можете голосовать в опросах
    Вы не можете прикреплять файлы к сообщениям
    Вы не можете скачивать файлы