BitTorrentTracker PerecTracker.org
BitTorrentTracker PerecTracker.org
    
Регистрация  ·  Вход
 
 · 
Забыли пароль?

  • [ATV3] Далласский клуб покупателей / Dallas Buyers Club (Жан-Марк Валле / Jean-Marc Vallée ) [2013, США, Драма, биография, BDRip, HD (1080p)] DUB + Original + sub (rus, eng)

    Ответить на тему
     
    Автор Сообщение

    Flirldrerve

    Создавать темы 13-Дек-2015 13:40

           

    [Цитировать]

    Далласский клуб покупателей / Dallas Buyers Club
    «Dare to Live»
    7.822 / 10 8.00 / 10
    -Год выпуска: 2013
    Страна: США
    Жанр: Драма, биография
    Продолжительность: 01:56:57
    Перевод: Дублированный (R5)
    Оригинальная аудиодорожка: Есть
    Cубтитры: Русские, Английские
    Режиссёр: Жан-Марк Валле
    Сценарий: Крэйг Бортен, Мелисса Уоллэк
    Продюсер: Робби Бреннер, Рэйчел Винтер, Дэвид Л. Бушнелл
    Оператор: Ив Беланже
    Художник: Джон Пэйно, Хавьера Варас, Курт и Барт
    Монтаж: Мартин Пенса, Жан-Марк Валле
    В ролях: Мэттью МакКонахи, Джаред Лето, Дженнифер Гарнер, Дэнис О’Хэр, Стив Зан, Майкл О’Нил, Даллас Робертс, Гриффин Данн, Кевин О. Ранкин, Донна ДюПлантье
    Бюджет: $5 000 000
    Сборы в США: $27 298 285
    Сборы в мире: + $27 900 000 = $55 198 285
    Сборы в России: $1 396 312
    Мировая премьера: 7 сентября 2013
    Премьера (РФ): 27 февраля 2014, «Cinema Prestige»
    Релиз на DVD: 8 апреля 2014, «CD Land»
    Описание: Реальная история Рона Вудруфа, техасского электрика, у которого в 1985 году обнаружили СПИД. Врачи отвели ему всего 30 дней, но он не пожелал смириться со смертным приговором и сумел продлить свою жизнь, принимая нетрадиционные лекарства, а затем наладил подпольный бизнес по продаже их другим больным.-Качество исходника: BDRemux (HDClub)
    Качество: BDRip
    Тип: HD (1080p)
    Контейнер: M4V
    Видео: H.264, 1920x800, 2.40:1, 8 000 Kbps, 23.976 fps
    Аудио 1: Русский/Дублированный (R5), AAC / 2.0 / 153 Kbps / 48.0 KHz
    Аудио 2: Английский/Оригинальная дорожка , AAC / 2.0 / 154 Kbps / 48.0 KHz
    Аудио 3: Русский/Дублированный (R5), AC-3 / 5.1 / 384 Kbps / 48.0 KHz
    Аудио 4: Английский/Оригинальная дорожка , AC-3 / 5.1 / 640 Kbps / 48.0 KHz
    Субтитры 1: Русские полные
    Субтитры 2: Английские полные
    -

    iTunes Meta Tags

    Sort Name: Dallas Buyers Club
    XID: Apple:vendor_id:2013-260162
    contentID: 735401313
    Copyright: © 2013 Focus Features. All Rights Reserved.
    Screenwriters: Крэйг Бортен, Мелисса Уоллэк
    Producers: Робби Бреннер, Дэвид Л. Бушнелл, Николя Картье
    Director: Жан-Марк Валле
    Cast: Мэттью МакКонахи, Джаред Лето, Дженнифер Гарнер, Дэнис О’Хэйр, Стив Зан, Майкл О’Нил, Даллас Робертс, Гриффин Данн, Кевин О. Ранкин, Донна ДюПлантье
    Studio: Focus Features
    Rating Annotation: Rated R for pervasive language, some strong sexual content, nudity and drug use.
    Rating: 5
    Long Description: Реальная история Рона Вудруфа, техасского электрика, у которого в 1986 году обнаружили СПИД. Тогда врачи отвели ему всего полгода, но он не пожелал смириться со смертным приговором и сумел продлить свою жизнь, принимая нетрадиционные лекарства, а затем наладил подпольный и прибыльный бизнес по продаже их другим больным.
    Description: Реальная история Рона Вудруфа, техасского электрика, у которого в 1986 году обнаружили СПИД. Тогда врачи отвели ему всего полгода, но он не пожелал смириться со смертным приговором и сумел продлить свою жизнь...
    Release Date: 2013-09-07T08:00:00Z
    Genre: Drama
    Artist: Jean-Marc Vallée
    Name: Dallas Buyers Club

    MediaInfo

    General
    Complete name : /Users/imac/HandBrake/Dallas Buyers Club (1080p HD).m4v
    Format : MPEG-4
    Codec ID : M4V
    File size : 7.63 GiB
    Duration : 1h 56mn
    Overall bit rate mode : Variable
    Overall bit rate : 9 336 Kbps
    Movie name : Dallas Buyers Club
    Performer : Jean-Marc Vallée
    Director : Жан-Марк Валле
    Actor : Мэттью МакКонахи / Джаред Лето / Дженнифер Гарнер / Дэнис О’Хэйр / Стив Зан / Майкл О’Нил / Даллас Робертс / Гриффин Данн / Кевин О. Ранкин / Донна ДюПлантье
    Screenplay by : Крэйг Бортен / Мелисса Уоллэк
    Producer : Робби Бреннер / Дэвид Л. Бушнелл / Николя Картье
    Production studio : Focus Features
    Genre : Drama
    ContentType : Short Film
    Description : Реальная история Рона Вудруфа, техасского электрика, у которого в 1986 году обнаружили СПИД. Тогда врачи отвели ему всего полгода, но он не пожелал смириться со смертным приговором и сумел продлить свою жизнь...
    Recorded date : UTC 2013-09-07 08:00:00
    Encoded date : UTC 2015-12-13 09:13:41
    Tagged date : UTC 2015-12-13 09:20:57
    Copyright : © 2013 Focus Features. All Rights Reserved.
    Cover : Yes
    Rating : None
    Title/Sort : Dallas Buyers Club
    LongDescription : Реальная история Рона Вудруфа, техасского электрика, у которого в 1986 году обнаружили СПИД. Тогда врачи отвели ему всего полгода, но он не пожелал смириться со смертным приговором и сумел продлить свою жизнь, принимая нетрадиционные лекарства, а затем наладил подпольный и прибыльный бизнес по продаже их другим больным.
    AppleStoreCatalogID : 735401313
    Vendor : Apple:vendor_id:2013-260162
    ContentRating : mpaa|R|400|Rated R for pervasive language, some strong sexual content, nudity and drug use.
    Video #1
    ID : 1
    Format : AVC
    Format/Info : Advanced Video Codec
    Format profile : High@L4
    Format settings, CABAC : Yes
    Format settings, ReFrames : 4 frames
    Codec ID : avc1
    Codec ID/Info : Advanced Video Coding
    Duration : 1h 56mn
    Source duration : 1h 56mn
    Bit rate : 8 000 Kbps
    Width : 1 920 pixels
    Height : 800 pixels
    Display aspect ratio : 2.40:1
    Frame rate mode : Variable
    Frame rate : 23.976 fps
    Minimum frame rate : 23.974 fps
    Maximum frame rate : 23.981 fps
    Color space : YUV
    Chroma subsampling : 4:2:0
    Bit depth : 8 bits
    Scan type : Progressive
    Bits/(Pixel*Frame) : 0.217
    Stream size : 6.53 GiB (86%)
    Source stream size : 6.53 GiB (86%)
    Title : Main Program
    Writing library : x264 core 142 r2479 dd79a61
    Encoding settings : cabac=1 / ref=4 / deblock=1:-2:-2 / analyse=0x3:0x133 / me=umh / subme=10 / psy=1 / psy_rd=1.00:0.15 / mixed_ref=1 / me_range=32 / chroma_me=1 / trellis=2 / 8x8dct=1 / cqm=0 / deadzone=21,11 / fast_pskip=0 / chroma_qp_offset=-3 / threads=36 / lookahead_threads=6 / sliced_threads=0 / nr=0 / decimate=0 / interlaced=0 / bluray_compat=0 / constrained_intra=0 / bframes=16 / b_pyramid=2 / b_adapt=2 / b_bias=0 / direct=3 / weightb=1 / open_gop=0 / weightp=2 / keyint=240 / keyint_min=24 / scenecut=40 / intra_refresh=0 / rc_lookahead=60 / rc=2pass / mbtree=1 / bitrate=8000 / ratetol=1.0 / qcomp=0.70 / qpmin=0 / qpmax=69 / qpstep=4 / cplxblur=20.0 / qblur=0.5 / vbv_maxrate=25000 / vbv_bufsize=25000 / nal_hrd=none / filler=0 / ip_ratio=1.40 / aq=1:1.00
    Language : English
    Encoded date : UTC 2015-12-13 09:13:41
    Tagged date : UTC 2015-12-13 09:14:04
    Color range : Limited
    Color primaries : BT.709
    Transfer characteristics : BT.709
    Matrix coefficients : BT.709
    Video #2
    ID : 9
    Format : JPEG
    Codec ID : jpeg
    Duration : 1h 56mn
    Bit rate mode : Variable
    Bit rate : 669 bps
    Width : 640 pixels
    Height : 266 pixels
    Display aspect ratio : 2.40:1
    Frame rate mode : Variable
    Frame rate : 0.003 fps
    Minimum frame rate : 0.002 fps
    Maximum frame rate : 0.004 fps
    Color space : YUV
    Chroma subsampling : 4:2:0
    Bit depth : 8 bits
    Compression mode : Lossy
    Bits/(Pixel*Frame) : 1.310
    Stream size : 545 KiB (0%)
    Title : Chapter Images
    Language : English
    Encoded date : UTC 2015-12-13 09:14:12
    Tagged date : UTC 2015-12-13 09:14:13
    Audio #1
    ID : 2
    Format : AAC
    Format/Info : Advanced Audio Codec
    Format profile : LC
    Codec ID : 40
    Duration : 1h 56mn
    Bit rate mode : Variable
    Bit rate : 153 Kbps
    Maximum bit rate : 254 Kbps
    Channel(s) : 2 channels
    Channel positions : Front: L R
    Sampling rate : 48.0 KHz
    Compression mode : Lossy
    Stream size : 128 MiB (2%)
    Title : Russian Stereo
    Language : Russian
    Encoded date : UTC 2015-12-13 09:13:41
    Tagged date : UTC 2015-12-13 09:14:05
    Audio #2
    ID : 3
    Format : AAC
    Format/Info : Advanced Audio Codec
    Format profile : LC
    Codec ID : 40
    Duration : 1h 56mn
    Bit rate mode : Variable
    Bit rate : 154 Kbps
    Maximum bit rate : 269 Kbps
    Channel(s) : 2 channels
    Channel positions : Front: L R
    Sampling rate : 48.0 KHz
    Compression mode : Lossy
    Stream size : 129 MiB (2%)
    Title : English Stereo
    Language : English
    Encoded date : UTC 2015-12-13 09:13:41
    Tagged date : UTC 2015-12-13 09:13:51
    Audio #3
    ID : 4
    Format : AC-3
    Format/Info : Audio Coding 3
    Mode extension : CM (complete main)
    Format settings, Endianness : Big
    Codec ID : ac-3
    Duration : 1h 56mn
    Bit rate mode : Constant
    Bit rate : 384 Kbps
    Channel(s) : 6 channels
    Channel positions : Front: L C R, Side: L R, LFE
    Sampling rate : 48.0 KHz
    Bit depth : 16 bits
    Compression mode : Lossy
    Stream size : 321 MiB (4%)
    Title : Russian DD 5.1
    Language : Russian
    Encoded date : UTC 2015-12-13 09:13:41
    Tagged date : UTC 2015-12-13 09:13:49
    Audio #4
    ID : 5
    Format : AC-3
    Format/Info : Audio Coding 3
    Mode extension : CM (complete main)
    Format settings, Endianness : Big
    Codec ID : ac-3
    Duration : 1h 56mn
    Bit rate mode : Constant
    Bit rate : 640 Kbps
    Channel(s) : 6 channels
    Channel positions : Front: L C R, Side: L R, LFE
    Sampling rate : 48.0 KHz
    Bit depth : 16 bits
    Compression mode : Lossy
    Stream size : 535 MiB (7%)
    Title : English DD 5.1
    Language : English
    Encoded date : UTC 2015-12-13 09:13:41
    Tagged date : UTC 2015-12-13 09:13:49
    Text #1
    ID : 6
    Format : Timed Text
    Muxing mode : sbtl
    Codec ID : tx3g
    Duration : 1h 52mn
    Bit rate mode : Variable
    Bit rate : 98 bps
    Stream size : 80.4 KiB (0%)
    Title : Russian full
    Language : Russian
    Encoded date : UTC 2015-12-13 09:13:41
    Tagged date : UTC 2015-12-13 09:13:41
    Text #2
    ID : 7
    Format : Timed Text
    Muxing mode : sbtl
    Codec ID : tx3g
    Duration : 1h 51mn
    Bit rate mode : Variable
    Bit rate : 65 bps
    Stream size : 52.8 KiB (0%)
    Title : English full
    Language : English
    Encoded date : UTC 2015-12-13 09:13:41
    Tagged date : UTC 2015-12-13 09:13:41
    Menu #1
    00:00:00.000 : Chapter 1
    00:06:20.755 : Chapter 2
    00:11:52.962 : Chapter 3
    00:18:41.662 : Chapter 4
    00:24:55.786 : Chapter 5
    00:29:44.366 : Chapter 6
    00:35:15.780 : Chapter 7
    00:41:32.532 : Chapter 8
    00:46:32.957 : Chapter 9
    00:51:48.939 : Chapter 10
    00:55:37.918 : Chapter 11
    01:01:26.057 : Chapter 12
    01:07:16.866 : Chapter 13
    01:12:36.978 : Chapter 14
    01:19:55.332 : Chapter 15
    01:28:25.634 : Chapter 16
    01:36:56.728 : Chapter 17
    01:43:06.722 : Chapter 18
    01:47:59.556 : Chapter 19
    01:52:12.935 : Chapter 20
    Menu #2
    ID : 8
    Codec ID : text
    Duration : 1h 56mn
    Language : English
    Encoded date : UTC 2015-12-13 09:14:05
    Tagged date : UTC 2015-12-13 09:14:05
    00:00:00.000 : Chapter 1
    00:06:20.755 : Chapter 2
    00:11:52.962 : Chapter 3
    00:18:41.662 : Chapter 4
    00:24:55.786 : Chapter 5
    00:29:44.366 : Chapter 6
    00:35:15.780 : Chapter 7
    00:41:32.532 : Chapter 8
    00:46:32.957 : Chapter 9
    00:51:48.939 : Chapter 10
    00:55:37.918 : Chapter 11
    01:01:26.057 : Chapter 12
    01:07:16.866 : Chapter 13
    01:12:36.978 : Chapter 14
    01:19:55.332 : Chapter 15
    01:28:25.634 : Chapter 16
    01:36:56.728 : Chapter 17
    01:43:06.722 : Chapter 18
    01:47:59.556 : Chapter 19
    01:52:12.935 : Chapter 20
    Bit rate mode : VBR

    x264 лог

    x264 [info]: frame I:954   Avg QP:17.92  size:183756
    x264 [info]: frame P:33562 Avg QP:20.71  size: 63870
    x264 [info]: frame B:133723 Avg QP:21.24  size: 35096
    x264 [info]: consecutive B-frames:  1.1%  1.3%  8.8%  8.9% 22.5% 48.0%  5.5%  0.5%  0.7%  0.5%  0.4%  0.5%  0.2%  0.2%  0.3%  0.3%  0.3%
    x264 [info]: mb I  I16..4: 15.1% 76.1%  8.9%
    x264 [info]: mb P  I16..4:  1.3% 12.0%  0.7%  P16..4: 49.9% 18.8% 12.0%  0.1%  0.0%    skip: 5.3%
    x264 [info]: mb B  I16..4:  0.1%  2.2%  0.0%  B16..8: 49.9%  7.9%  1.9%  direct: 7.9%  skip:30.3%  L0:46.5% L1:48.5% BI: 5.0%
    x264 [info]: 8x8 transform intra:88.3% inter:68.7%
    x264 [info]: direct mvs  spatial:99.4% temporal:0.6%
    x264 [info]: coded y,uvDC,uvAC intra: 93.9% 92.6% 73.3% inter: 35.7% 36.3% 10.8%
    x264 [info]: i16 v,h,dc,p: 31% 11% 14% 44%
    x264 [info]: i8 v,h,dc,ddl,ddr,vr,hd,vl,hu:  7%  6% 10% 11% 15% 14% 13% 12% 12%
    x264 [info]: i4 v,h,dc,ddl,ddr,vr,hd,vl,hu:  8%  7%  2% 10% 16% 16% 15% 12% 13%
    x264 [info]: i8c dc,h,v,p: 48% 18% 17% 17%
    x264 [info]: Weighted P-Frames: Y:1.6% UV:0.6%
    x264 [info]: ref P L0: 48.7% 10.0% 29.0% 11.4%  0.9%  0.0%
    x264 [info]: ref B L0: 83.7% 13.0%  3.3%
    x264 [info]: ref B L1: 91.3%  8.7%
    x264 [info]: kb/s:7994.28

    Скриншоты

    -

    Релиз подготовлен для просмотра на Apple TV, iPad, iPhone, iPod Touch.
    Для просмотра данного релиза на компьютере с ОС Windows рекомендуется использовать VLC media player
    Скачать .torrent

    Скачать торрент-файл бесплатно и на максимальной скорости!

    Как скачивать? · Что такое торрент? · Рейтинг и ограничения

    !ВНИМАНИЕ!
    Сайт не распространяет и не хранит электронные версии произведений, а занимается лишь лишь предоставлением доступа к создаваемому пользователями каталогу ссылок на торрент-файлы, которые содержат только списки хеш-сумм, убедительная просьба с жалобами обращаться напрямую к пользователю. Файлы для обмена на трекере предоставлены пользователями сайта, и администрация не несёт ответственности за их содержание. Просьба не заливать файлы, защищенные авторскими правами, а также файлы нелегального содержания!


    _________________
    [Профиль] [ЛС]
    Показать сообщения:    
    Ответить на тему

    Текущее время: Сегодня, в 22:23

    Часовой пояс: GMT + 2



    Вы не можете начинать темы
    Вы не можете отвечать на сообщения
    Вы не можете редактировать свои сообщения
    Вы не можете удалять свои сообщения
    Вы не можете голосовать в опросах
    Вы не можете прикреплять файлы к сообщениям
    Вы не можете скачивать файлы