BitTorrentTracker PerecTracker.org
BitTorrentTracker PerecTracker.org
    
Регистрация  ·  Вход
 
 · 
Забыли пароль?

  • Том и Джерри: Гигантское приключение / Tom and Jerry's Giant Adventure (Спайк Брандт, Тони Червоне / Spike Brandt, Tony Cervone) [2013 г., Mультфильм, Детский, Комедия, Приключения, Семейный, BDRip-AVC] [Лицензия]

    Ответить на тему
     
    Автор Сообщение

    -sasha2006

    Создавать темы 18-Авг-2013 17:54

           

    [Цитировать]

    Том и Джерри: Гигантское приключение / Tom and Jerry's Giant Adventure-Год выпуска: 2013
    Страна: США
    Жанр: Mультфильм, Детский, Комедия, Приключения, Семейный
    Продолжительность: 00:57:07
    Перевод: Профессиональный (полное дублирование) [Лицензия]
    Субтитры: Русский, Aнглийский (Вшитые отключаемые)
    Оригинальная аудио дорожка: английский--Режиссер: Спайк Брандт, Тони Червоне / Spike Brandt, Tony Cervone--Релиз на DVD: 15 августа 2013, «Двадцатый Век Фокс СНГ»
    --В ролях: Том Уилсон, Гаррисон Кейллор, Пол Рубенс, Грей Делайл, Иаков Бертран--Описание: Любимцы зрителей, легендарные Том и Джерри вновь оказываются втянутыми в увлекательное приключение!
    В этом новом полнометражном мультфильме Том и Джерри - одни из последних зверушек, оставшихся в парке развлечений "Город сказок". Здесь "мечты оживают, если ты веришь в это". Мальчик Джек хочет спасти парк от рук жадного миллиардера и вместе со своими верными друзьями - котом и мышонком - решает продать своего бычка... за пригоршню волшебных бобов. Забравшись по гигантскому бобовому стеблю за облака, они попадают в волшебную страну. Там правит злой и голодный великан, и живут сказочные герои: Друпи, Спайк и даже Матушка Гусыня. Смогут ли Том и Джерри помириться друг с дружкой ради того, чтобы спасти "Город Сказок"? Можно не гадать на ромашке, а присоединиться к ним и увидеть все собственными глазами!--Качество: BDRip-AVC
    Формат: MKV
    Видео кодек: Другой MPEG4
    Аудио кодек: AC3
    Видео: H.264, 1280x720, ~3020 Кbps
    Аудио 1: Русский: 48 kHz, AC3 Dolby Digital, 2/0 (L,C) ch, 192.00 kbps
    Аудио 2: Английский: 48 kHz, AC3 Dolby Digital, 3/2 (L,C,R,l,r) + LFE ch, 448.00 kbps

    MediaInfo

    Общее
    Уникальный идентификатор : 188945671568739665999066766714945356433 (0x8E259CD82E51432D981623CCFEFF4291)
    Полное имя : D:\Tom.and.Jerri.Gigantskoje.Prikljuchenije.2013.BDRip720p.mkv
    Формат : Matroska
    Версия формата : Version 4 / Version 2
    Размер файла : 1,46 Гбайт
    Продолжительность : 57 м.
    Общий поток : 3663 Кбит/сек
    Название фильма : HELLYWOOD - rip by potroks
    Дата кодирования : UTC 2013-08-17 15:37:15
    Программа кодирования : mkvmerge v5.9.0 ('On The Loose') built on Dec 15 2012 16:39:58
    Библиотека кодирования : libebml v1.3.0 + libmatroska v1.4.0
    Видео
    Идентификатор : 1
    Формат : AVC
    Формат/Информация : Advanced Video Codec
    Профиль формата : High@L4.1
    Параметр CABAC формата : Да
    Параметр ReFrames формата : 8 кадров
    Идентификатор кодека : V_MPEG4/ISO/AVC
    Продолжительность : 57 м.
    Битрейт : 3020 Кбит/сек
    Ширина : 1280 пикселей
    Высота : 720 пикселей
    Соотношение сторон : 16:9
    Режим частоты кадров : Постоянный
    Частота кадров : 23,976 кадра/сек
    Цветовое пространство : YUV
    Субдискретизация насыщенности : 4:2:0
    Битовая глубина : 8 бит
    Тип развёртки : Прогрессивная
    Бит/(Пиксели*Кадры) : 0.137
    Размер потока : 1,18 Гбайт (81%)
    Заголовок : Tom and Jerry's Giant Adventure
    Библиотека кодирования : x264 core 130 r2273 b3065e6
    Настройки программы : cabac=1 / ref=8 / deblock=1:-1:-1 / analyse=0x3:0x133 / me=umh / subme=11 / psy=1 / psy_rd=1.03:0.01 / mixed_ref=1 / me_range=32 / chroma_me=1 / trellis=2 / 8x8dct=1 / cqm=0 / deadzone=21,11 / fast_pskip=0 / chroma_qp_offset=-3 / threads=6 / lookahead_threads=1 / sliced_threads=0 / nr=0 / decimate=1 / interlaced=0 / bluray_compat=0 / constrained_intra=0 / bframes=9 / b_pyramid=2 / b_adapt=2 / b_bias=0 / direct=3 / weightb=1 / open_gop=0 / weightp=2 / keyint=250 / keyint_min=23 / scenecut=40 / intra_refresh=0 / rc_lookahead=60 / rc=2pass / mbtree=0 / bitrate=3020 / ratetol=1.0 / qcomp=0.70 / qpmin=0 / qpmax=69 / qpstep=4 / cplxblur=20.0 / qblur=0.5 / vbv_maxrate=50000 / vbv_bufsize=62500 / nal_hrd=none / ip_ratio=1.35 / pb_ratio=1.25 / aq=1:0.70
    Язык : English
    Default : Да
    Forced : Нет
    Аудио #1
    Идентификатор : 2
    Формат : AC-3
    Формат/Информация : Audio Coding 3
    Профиль формата : Dolby Digital
    Расширение режима : CM (complete main)
    Параметр Endianness формата : Big
    Идентификатор кодека : A_AC3
    Продолжительность : 57 м.
    Вид битрейта : Постоянный
    Битрейт : 192 Кбит/сек
    Каналы : 2 канала
    Расположение каналов : Front: L R
    Частота : 48,0 КГц
    Битовая глубина : 16 бит
    Метод сжатия : С потерями
    Размер потока : 78,4 Мбайт (5%)
    Заголовок : Dub | DD 2.0 @ 192 kbps
    Язык : Russian
    Default : Да
    Forced : Да
    Аудио #2
    Идентификатор : 3
    Формат : AC-3
    Формат/Информация : Audio Coding 3
    Расширение режима : CM (complete main)
    Параметр Endianness формата : Big
    Идентификатор кодека : A_AC3
    Продолжительность : 57 м.
    Вид битрейта : Постоянный
    Битрейт : 448 Кбит/сек
    Каналы : 6 каналов
    Расположение каналов : Front: L C R, Side: L R, LFE
    Частота : 48,0 КГц
    Битовая глубина : 16 бит
    Метод сжатия : С потерями
    Размер потока : 183 Мбайт (12%)
    Заголовок : Original | DD 5.1 @ 448 kbps
    Язык : English
    Default : Нет
    Forced : Нет
    Текст #1
    Идентификатор : 4
    Формат : UTF-8
    Идентификатор кодека : S_TEXT/UTF8
    Идентификатор кодека/Информация : UTF-8 Plain Text
    Язык : English
    Default : Нет
    Forced : Нет
    Текст #2
    Идентификатор : 5
    Формат : UTF-8
    Идентификатор кодека : S_TEXT/UTF8
    Идентификатор кодека/Информация : UTF-8 Plain Text
    Язык : Russian
    Default : Нет
    Forced : Нет

    Скриншоты

    Скачать .torrent

    Скачать торрент-файл бесплатно и на максимальной скорости!

    Как скачивать? · Что такое торрент? · Рейтинг и ограничения

    !ВНИМАНИЕ!
    Сайт не распространяет и не хранит электронные версии произведений, а занимается лишь лишь предоставлением доступа к создаваемому пользователями каталогу ссылок на торрент-файлы, которые содержат только списки хеш-сумм, убедительная просьба с жалобами обращаться напрямую к пользователю. Файлы для обмена на трекере предоставлены пользователями сайта, и администрация не несёт ответственности за их содержание. Просьба не заливать файлы, защищенные авторскими правами, а также файлы нелегального содержания!


    _________________

    ░▒▓█▀▄▀▄▀▄█▓▒░


    Последний раз редактировалось: -sasha2006 (2016-02-04 23:02), всего редактировалось 1 раз
    [Профиль] [ЛС]

    -746

    Создавать темы 06-Янв-2014 01:06 (спустя 4 месяца 18 дней)

           

    Топик был перенесен из форума Иностранные мультфильмы (Новинки) в форум Иностранные мультфильмы

    -sasha2006 

    _________________
    Как бы ты высоко не летал, не забывай, с кем ты ползал..
     
    Показать сообщения:    
    Ответить на тему

    Текущее время: Сегодня, в 07:08

    Часовой пояс: GMT + 2



    Вы не можете начинать темы
    Вы не можете отвечать на сообщения
    Вы не можете редактировать свои сообщения
    Вы не можете удалять свои сообщения
    Вы не можете голосовать в опросах
    Вы не можете прикреплять файлы к сообщениям
    Вы не можете скачивать файлы