BitTorrentTracker PerecTracker.org
BitTorrentTracker PerecTracker.org
    
Регистрация  ·  Вход
 
 · 
Забыли пароль?

  • Отрочество / Boyhood (Ричард Линклейтер / Richard Linklater) [2014, США, драма, BDRip-AVC] Dub + Original (Eng) + Sub (Rus, Ukr, Eng)

    Ответить на тему
     
    Автор Сообщение

    Light

    Создавать темы 12-Дек-2015 16:37

           

    [Цитировать]

    Отрочество
    Boyhood
    «12 years in the making»

    Страна: США
    Жанр: драма
    Год выпуска: 2014
    Продолжительность: 02:45:38
    Перевод: Профессиональный (полное дублирование) [НТВ+]
    Cубтитры: русские, украинские, английские (Full, SDH, SDH-Colored)
    Оригинальная аудиодорожка: Английский
    Режиссер: Ричард Линклейтер / Richard Linklater
    В ролях: Эллар Колтрейн, Итан Хоук, Патриция Аркетт, Лорелей Линклейтер, Либби Виллари, Элайджа Смит, Стивен Честер Принц, Бонни Кросс, Сидни Орта, Марко Перелья, Джэми Ховард, Эндрю Вилларриал
    Описание:
    История охватывает двенадцать лет жизни Мейсона (от первого класса в школе до первого дня в колледже) и складывается из небольших эпизодов, показывающих взросление и отношения с родителями ребёнка, подростка, юноши. Релиз:
    Автор рипа: Stalker oK
    Сэмпл
    Качество видео: BDRip-AVC [kinozal / Blu-ray Remux / 1080p]
    Формат видео: MKV
    Видео кодек: AVC
    Аудио кодек: AC3
    Видео: 2131 Кбит/сек, 908*492 (16:9), в 23,976 кадр/сек, AVC
    Аудио #1: Russian, 384 Кбит/сек, 48,0 КГц, 16 бит, 6 канала(ов), AC-3
    Аудио #2: English, 448 Кбит/сек, 48,0 КГц, 16 бит, 6 канала(ов), AC-3 (отдельно)
    Навигация по главам: есть

    MediaInfo

    Общее
    Уникальный идентификатор : 237353676686036047190908001839868801660 (0xB290A7C3F82494D0AF99DD52405FF27C)
    Полное имя : M:\Rips\Boyhood\Boyhood.2014\Boyhood.2014.BDRip-AVC.2.91Gb.stalkerok.new-team.mkv
    Формат : Matroska
    Размер файла : 2,91 Гбайт
    Продолжительность : 2 ч. 45 м.
    Общий поток : 2517 Кбит/сек
    Название фильма : Boyhood (2014) (New-Team) (Rip by Stalker oK)
    Дата кодирования : UTC 2015-12-11 12:12:12
    Программа кодирования : mkvmerge v7.9.0 ('Birds') 64bit
    Библиотека кодирования : libebml v1.3.1 + libmatroska v1.4.2
    Видео
    Идентификатор : 1
    Формат : AVC
    Формат/Информация : Advanced Video Codec
    Профиль формата : High@L4.1
    Параметр CABAC формата : Да
    Параметр ReFrames формата : 13 кадры
    Идентификатор кодека : V_MPEG4/ISO/AVC
    Продолжительность : 2 ч. 45 м.
    Битрейт : 2131 Кбит/сек
    Ширина : 908 пикс.
    Высота : 492 пикс.
    Соотношение сторон : 16:9
    Частота кадров : 23,976 кадр/сек
    Цветовое пространство : YUV
    Подвыборка цветности : 4:2:0
    Битовая глубина : 8 бит
    Тип развёртки : Прогрессивная
    Бит/(Пиксели*Кадры) : 0.199
    Размер потока : 2,41 Гбайт (83%)
    Заголовок : Boyhood (2014) (New-Team) (Rip by Stalker oK)
    Библиотека кодирования : x264 core 148 r2638 7599210
    Настройки программы : cabac=1 / ref=13 / deblock=1:-3:-3 / analyse=0x3:0x133 / me=umh / subme=11 / psy=1 / psy_rd=1.00:0.10 / mixed_ref=1 / me_range=48 / chroma_me=1 / trellis=2 / 8x8dct=1 / cqm=0 / deadzone=21,11 / fast_pskip=0 / chroma_qp_offset=-3 / threads=12 / lookahead_threads=3 / sliced_threads=0 / nr=0 / decimate=0 / interlaced=0 / bluray_compat=0 / constrained_intra=0 / bframes=14 / b_pyramid=2 / b_adapt=2 / b_bias=0 / direct=3 / weightb=1 / open_gop=0 / weightp=2 / keyint=240 / keyint_min=23 / scenecut=40 / intra_refresh=0 / rc_lookahead=60 / rc=2pass / mbtree=0 / bitrate=2131 / ratetol=1.0 / qcomp=0.70 / qpmin=0 / qpmax=69 / qpstep=4 / cplxblur=20.0 / qblur=0.5 / vbv_maxrate=50000 / vbv_bufsize=62500 / nal_hrd=none / filler=0 / ip_ratio=1.40 / pb_ratio=1.30 / aq=3:0.85
    Аудио
    Идентификатор : 2
    Формат : AC-3
    Формат/Информация : Audio Coding 3
    Расширение режима : CM (complete main)
    Идентификатор кодека : A_AC3
    Продолжительность : 2 ч. 45 м.
    Вид битрейта : Постоянный
    Битрейт : 384 Кбит/сек
    Канал(ы) : 6 канала(ов)
    Расположение каналов : Front: L C R, Side: L R, LFE
    Частота : 48,0 КГц
    Битовая глубина : 16 бит
    Метод сжатия : С потерями
    Размер потока : 455 Мбайт (15%)
    Язык : Russian
    Текст #1
    Идентификатор : 3
    Формат : UTF-8
    Идентификатор кодека : S_TEXT/UTF8
    Идентификатор кодека/Информация : UTF-8 Plain Text
    Заголовок : Blu-Ray CEE
    Язык : Russian
    Текст #2
    Идентификатор : 4
    Формат : UTF-8
    Идентификатор кодека : S_TEXT/UTF8
    Идентификатор кодека/Информация : UTF-8 Plain Text
    Заголовок : Blu-Ray CEE
    Язык : Ukrainian
    Текст #3
    Идентификатор : 5
    Формат : UTF-8
    Идентификатор кодека : S_TEXT/UTF8
    Идентификатор кодека/Информация : UTF-8 Plain Text
    Заголовок : Full
    Язык : English
    Текст #4
    Идентификатор : 6
    Формат : UTF-8
    Идентификатор кодека : S_TEXT/UTF8
    Идентификатор кодека/Информация : UTF-8 Plain Text
    Заголовок : SDH
    Язык : English
    Текст #5
    Идентификатор : 7
    Формат : UTF-8
    Идентификатор кодека : S_TEXT/UTF8
    Идентификатор кодека/Информация : UTF-8 Plain Text
    Заголовок : SDH-Colored
    Язык : English
    Меню
    00:00:00.000 : en:Chapter 1
    00:08:52.949 : en:Chapter 2
    00:15:59.291 : en:Chapter 3
    00:25:01.917 : en:Chapter 4
    00:34:56.636 : en:Chapter 5
    00:44:47.351 : en:Chapter 6
    00:52:26.059 : en:Chapter 7
    00:59:31.109 : en:Chapter 8
    01:07:36.719 : en:Chapter 9
    01:12:25.549 : en:Chapter 10
    01:22:55.553 : en:Chapter 11
    01:31:25.771 : en:Chapter 12
    01:42:00.656 : en:Chapter 13
    01:49:05.539 : en:Chapter 14
    01:54:18.768 : en:Chapter 15
    02:00:53.537 : en:Chapter 16
    02:11:11.572 : en:Chapter 17
    02:23:06.411 : en:Chapter 18
    02:30:44.994 : en:Chapter 19
    02:39:58.797 : en:Chapter 20

    Скриншоты

    Скачать .torrent

    Скачать торрент-файл бесплатно и на максимальной скорости!

    Как скачивать? · Что такое торрент? · Рейтинг и ограничения

    !ВНИМАНИЕ!
    Сайт не распространяет и не хранит электронные версии произведений, а занимается лишь лишь предоставлением доступа к создаваемому пользователями каталогу ссылок на торрент-файлы, которые содержат только списки хеш-сумм, убедительная просьба с жалобами обращаться напрямую к пользователю. Файлы для обмена на трекере предоставлены пользователями сайта, и администрация не несёт ответственности за их содержание. Просьба не заливать файлы, защищенные авторскими правами, а также файлы нелегального содержания!


    _________________
    [Профиль] [ЛС]
    Показать сообщения:    
    Ответить на тему

    Текущее время: Сегодня, в 19:54

    Часовой пояс: GMT + 2



    Вы не можете начинать темы
    Вы не можете отвечать на сообщения
    Вы не можете редактировать свои сообщения
    Вы не можете удалять свои сообщения
    Вы не можете голосовать в опросах
    Вы не можете прикреплять файлы к сообщениям
    Вы не можете скачивать файлы