BitTorrentTracker PerecTracker.org
BitTorrentTracker PerecTracker.org
    
Регистрация  ·  Вход
 
 · 
Забыли пароль?

  • Схватка / Двобій / Сутичка / Heat (Майкл Манн) [1995 р., екшн, кримінальний, драма, трилер, BDRip] MVO 3xUkr + Original

    Ответить на тему
     
    Автор Сообщение

    older

    Создавать темы 12-Дек-2015 15:18

           

    [Цитировать]

    Схватка / Двобій / Сутичка / Heat

    Рік випуску: 1995
    Країна: США
    Кіностудія / кінокомпанія: Warner Bros., Regency Enterprises, Forward Pass
    Жанр: екшн, кримінальний, драма, трилер
    Тривалість: 02:50:27
    Субтитри: відсутні
    Переклад: багатоголосий, закадровий (професійний) - 2+2, Новий канал, Кіно
    Аудіодоріжка: три українські, англійська-Режисер: Майкл Манн
    Сценарій: Майкл Манн
    Продюсер: Арт Лінсон, Майкл Манн, Пітер Жан Брюгге-Світова прем'єра: 15 грудня 1995
    Обмеження за віком: немає- -Актори: Аль Пачіно / Al Pacino, Роберт Де Ніро / Robert De Niro, Вел Кілмер / Val Kilmer, Том Сайзмор / Tom Sizemore, Емі Бреннеман / Amy Brenneman, Джон Войт / Jon Voight, Даян Венора / Diane Venora, Ешлі Джадд / Ashley Judd, Майкелті Вільямсон / Mykelti Williamson, Вес Студі / Wes Studi, Денні Трехо / Danny Trejo, Наталі Портман / Natalie Portman-Сюжет: Кримінальна драма про протистояння злочинця і поліцейського. Дуже напружений і психологічний фільм режисера Майкла Манна, в якому вперше за більш ніж 20 років, такі метри кіномистецтва як Аль Пачіно і Роберт де Ніро зіграли разом.
    Ніл МакКолі, якого грає де Ніро, є ватажком банди грабіжників, що складається з декількох його друзів. Бандитам вдається спланувати і провести напад на броньовик, викравши понад півтора мільйона доларів у цінних паперах. Справа ускладнюється, коли новий член банди на ім'я Вейнґро, вбиває одного з охоронців, і банді доводиться вбити інших, як свідків.
    Справу доручають вести лейтенанту елітного відділу поліції Вінсенту Ханні, якого грає Аль Пачіно...-Формат: AVI
    Якість: BDRip
    Відео кодек: XviD
    Відео: 720x304 (2,35:1), 1838 kbps, 23.976 fps, 0.350 bit/pixel
    Аудіо 1: AC3, 48 kHz, 2 ch, 192 kbps - 2+2
    Аудіо 2: AC3, 48 kHz, 2 ch, 192 kbps - Новий канал
    Аудіо 3: AC3, 48 kHz, 2 ch, 192 kbps - Кіно
    Аудіо 4: AC3, 48 kHz, 6 ch, 384 kbps - Original (окремим файлом)-Джерело:

    Реліз

    Щира подяка: п. POMEO за наданий сирий звук до Аудіо #1, п. OlegCena, MAKAPOHHIK за наданий сирий звук до Аудіо #2 і п. dvorsky за наданий сирий звук до Аудіо #3.

    MediaInfo

    Общее
    Полное имя                               : \Heat (1995) [Hurtom]\Heat (1995) [3xUkr] BDRip [Hurtom].avi
    Формат                                   : AVI
    Формат/Информация                        : Audio Video Interleave
    Профиль формата                          : OpenDML
    Размер файла                             : 2,90 Гбайт
    Продолжительность                        : 2 ч. 50 м.
    Общий поток                              : 2436 Кбит/сек
    Программа кодирования                    : VirtualDubMod 1.5.10.3 | www.virtualdub-fr.org || (build 2550/release)
    Библиотека кодирования                   : VirtualDubMod build 2550/release
    Видео
    Идентификатор                            : 0
    Формат                                   : MPEG-4 Visual
    Профиль формата                          : Advanced Simple@L5
    Параметр BVOP формата                    : 1
    Параметр QPel формата                    : Нет
    Параметр GMC формата                     : Без точки перехода
    Параметр матрицы формата                 : Default (MPEG)
    Идентификатор кодека                     : XVID
    Идентификатор кодека/Подсказка           : XviD
    Продолжительность                        : 2 ч. 50 м.
    Битрейт                                  : 1838 Кбит/сек
    Ширина                                   : 720 пикселей
    Высота                                   : 304 пикселя
    Соотношение сторон                       : 2,35:1
    Частота кадров                           : 23,976 кадра/сек
    Цветовое пространство                    : YUV
    Субдискретизация насыщенности            : 4:2:0
    Битовая глубина                          : 8 бит
    Тип развёртки                            : Прогрессивная
    Метод сжатия                             : С потерями
    Бит/(Пиксели*Кадры)                      : 0.350
    Размер потока                            : 2,19 Гбайт (75%)
    Библиотека кодирования                   : XviD 65
    Аудио #1
    Идентификатор                            : 1
    Формат                                   : AC-3
    Формат/Информация                        : Audio Coding 3
    Расширение режима                        : CM (complete main)
    Параметр Endianness формата              : Big
    Идентификатор кодека                     : 2000
    Продолжительность                        : 2 ч. 50 м.
    Вид битрейта                             : Постоянный
    Битрейт                                  : 192 Кбит/сек
    Каналы                                   : 2 канала
    Расположение каналов                     : Front: L R
    Частота                                  : 48,0 КГц
    Битовая глубина                          : 16 бит
    Метод сжатия                             : С потерями
    Размер потока                            : 234 Мбайт (8%)
    Выравнивание                             : Разделение по промежуткам
    Продолжительность промежутка             : 42  мс. (1,00 видеокадр)
    Время предзагрузки промежутка            : 500  мс.
    Аудио #2
    Идентификатор                            : 2
    Формат                                   : AC-3
    Формат/Информация                        : Audio Coding 3
    Расширение режима                        : CM (complete main)
    Параметр Endianness формата              : Big
    Идентификатор кодека                     : 2000
    Продолжительность                        : 2 ч. 50 м.
    Вид битрейта                             : Постоянный
    Битрейт                                  : 192 Кбит/сек
    Каналы                                   : 2 канала
    Расположение каналов                     : Front: L R
    Частота                                  : 48,0 КГц
    Битовая глубина                          : 16 бит
    Метод сжатия                             : С потерями
    Размер потока                            : 234 Мбайт (8%)
    Выравнивание                             : Разделение по промежуткам
    Продолжительность промежутка             : 42  мс. (1,00 видеокадр)
    Время предзагрузки промежутка            : 500  мс.
    Аудио #3
    Идентификатор                            : 3
    Формат                                   : AC-3
    Формат/Информация                        : Audio Coding 3
    Расширение режима                        : CM (complete main)
    Параметр Endianness формата              : Big
    Идентификатор кодека                     : 2000
    Продолжительность                        : 2 ч. 50 м.
    Вид битрейта                             : Постоянный
    Битрейт                                  : 192 Кбит/сек
    Каналы                                   : 2 канала
    Расположение каналов                     : Front: L R
    Частота                                  : 48,0 КГц
    Битовая глубина                          : 16 бит
    Метод сжатия                             : С потерями
    Размер потока                            : 234 Мбайт (8%)
    Выравнивание                             : Разделение по промежуткам
    Продолжительность промежутка             : 42  мс. (1,00 видеокадр)
    Время предзагрузки промежутка            : 500  мс.

    Скріншоти

    Скачать .torrent

    Скачать торрент-файл бесплатно и на максимальной скорости!

    Как скачивать? · Что такое торрент? · Рейтинг и ограничения

    !ВНИМАНИЕ!
    Сайт не распространяет и не хранит электронные версии произведений, а занимается лишь лишь предоставлением доступа к создаваемому пользователями каталогу ссылок на торрент-файлы, которые содержат только списки хеш-сумм, убедительная просьба с жалобами обращаться напрямую к пользователю. Файлы для обмена на трекере предоставлены пользователями сайта, и администрация не несёт ответственности за их содержание. Просьба не заливать файлы, защищенные авторскими правами, а также файлы нелегального содержания!


    _________________
    [Профиль] [ЛС]
    Показать сообщения:    
    Ответить на тему

    Текущее время: Сегодня, в 20:53

    Часовой пояс: GMT + 2



    Вы не можете начинать темы
    Вы не можете отвечать на сообщения
    Вы не можете редактировать свои сообщения
    Вы не можете удалять свои сообщения
    Вы не можете голосовать в опросах
    Вы не можете прикреплять файлы к сообщениям
    Вы не можете скачивать файлы