BitTorrentTracker PerecTracker.org
BitTorrentTracker PerecTracker.org
    
Регистрация  ·  Вход
 
 · 
Забыли пароль?

  • Догма / Dogma (Кевін Сміт) [1999 р., містика, комедія, BDRip] MVO (Студія Омікрон) Ukr

    Ответить на тему
     
    Автор Сообщение

    older

    Создавать темы 12-Дек-2015 12:37

           

    [Цитировать]

    Догма / Dogma

    Рік випуску: 1999
    Країна: США
    Кіностудія / кінокомпанія: View Askew Productions, STK
    Жанр: містика, комедія
    Тривалість: 02:08:11
    Субтитри: відсутні
    Переклад: багатоголосий, закадровий (професійний) - Студія Омікрон
    Аудіодоріжка: українська-Режисер: Кевін Сміт
    Сценарій: Кевін Сміт
    Продюсер: Скотт Моужер, Джон Гордон, Лаура Гринли-Світова прем'єра: 21 травня 1999:
    Обмеження за віком: немає- -Актори: Бен Афлек, Метт Деймон, Джордж Карлін, Лінда Фіорентіно, Салма Хайєк, Алан Рікман, Кріс Рок, Кевін Сміт, Джейсон Мьюз-Сюжет: Працівниця абортарію з непростим родоводом змушена рятувати людське буття від двох янголів відступників, здатних занапаститити його в безчесній спробі повернення до раю.-Формат: AVI
    Якість: BDRip
    Відео кодек: XviD
    Відео: 720x304 (2,35:1), 1335 kbps, 23.976 fps, 0.254 bit/pixel
    Аудіо : AC3, 48 kHz, 6 ch, 448 kbps-Джерело:

    MediaInfo

    Общее
    Полное имя                               : \Dogma (1999) [ukr] BDRip [Hurtom].avi
    Формат                                   : AVI
    Формат/Информация                        : Audio Video Interleave
    Размер файла                             : 1,60 Гбайт
    Продолжительность                        : 2 ч. 8 м.
    Общий поток                              : 1792 Кбит/сек
    Название фильма                          : Догма / Dogma (1999) [Hurtom]
    Режиссёр                                 : Омікрон & hurtom.com
    Тема                                     : Озвучено студією Омікрон на замовлення hurtom.com
    Программа кодирования                    : VirtualDubMod 1.5.10.2 (build 2540/release)
    Библиотека кодирования                   : VirtualDubMod build 2540/release
    Видео
    Идентификатор                            : 0
    Формат                                   : MPEG-4 Visual
    Профиль формата                          : Advanced Simple@L5
    Параметр BVOP формата                    : 2
    Параметр QPel формата                    : Нет
    Параметр GMC формата                     : Без точки перехода
    Параметр матрицы формата                 : Default (H.263)
    Идентификатор кодека                     : XVID
    Идентификатор кодека/Подсказка           : XviD
    Продолжительность                        : 2 ч. 8 м.
    Битрейт                                  : 1335 Кбит/сек
    Ширина                                   : 720 пикселей
    Высота                                   : 304 пикселя
    Соотношение сторон                       : 2,35:1
    Частота кадров                           : 23,976 кадра/сек
    Цветовое пространство                    : YUV
    Субдискретизация насыщенности            : 4:2:0
    Битовая глубина                          : 8 бит
    Тип развёртки                            : Прогрессивная
    Метод сжатия                             : С потерями
    Бит/(Пиксели*Кадры)                      : 0.254
    Размер потока                            : 1,20 Гбайт (74%)
    Библиотека кодирования                   : XviD 1.2.1 (UTC 2008-12-04)
    Аудио
    Идентификатор                            : 1
    Формат                                   : AC-3
    Формат/Информация                        : Audio Coding 3
    Расширение режима                        : CM (complete main)
    Параметр Endianness формата              : Big
    Идентификатор кодека                     : 2000
    Продолжительность                        : 2 ч. 8 м.
    Вид битрейта                             : Постоянный
    Битрейт                                  : 448 Кбит/сек
    Каналы                                   : 6 каналов
    Расположение каналов                     : Front: L C R, Side: L R, LFE
    Частота                                  : 48,0 КГц
    Битовая глубина                          : 16 бит
    Метод сжатия                             : С потерями
    Размер потока                            : 411 Мбайт (25%)
    Выравнивание                             : Разделение по промежуткам
    Продолжительность промежутка             : 42  мс. (1,00 видеокадр)
    Время предзагрузки промежутка            : 500  мс.

    Скріншоти

    Скачать .torrent

    Скачать торрент-файл бесплатно и на максимальной скорости!

    Как скачивать? · Что такое торрент? · Рейтинг и ограничения

    !ВНИМАНИЕ!
    Сайт не распространяет и не хранит электронные версии произведений, а занимается лишь лишь предоставлением доступа к создаваемому пользователями каталогу ссылок на торрент-файлы, которые содержат только списки хеш-сумм, убедительная просьба с жалобами обращаться напрямую к пользователю. Файлы для обмена на трекере предоставлены пользователями сайта, и администрация не несёт ответственности за их содержание. Просьба не заливать файлы, защищенные авторскими правами, а также файлы нелегального содержания!


    _________________
    [Профиль] [ЛС]
    Показать сообщения:    
    Ответить на тему

    Текущее время: Сегодня, в 10:33

    Часовой пояс: GMT + 2



    Вы не можете начинать темы
    Вы не можете отвечать на сообщения
    Вы не можете редактировать свои сообщения
    Вы не можете удалять свои сообщения
    Вы не можете голосовать в опросах
    Вы не можете прикреплять файлы к сообщениям
    Вы не можете скачивать файлы