Register  ·  Log in
Forgot password?

  • Арестуйте меня / Arretez-moi (Жан-Поль Лильенфельд / Jean-Paul Lilienfeld) [2013, Франция, Триллер, HDRip] MVO

    Reply to topic
    Author Message


    Post 12-Dec-2015 13:36



    Арестуйте меня / Arretez-moi
    Страна: Франция
    Жанр: Триллер
    Год выпуска: 2013
    Продолжительность: 01:39:26
    Перевод: Профессиональный (многоголосый закадровый)
    Cубтитры: нет
    Оригинальная аудиодорожка: нет-Режиссер: Жан-Поль Лильенфельд / Jean-Paul Lilienfeld-В ролях: Софи Марсо, Миу-Миу, Янн Эбонж, Марк Барбе, Валери Бодсон, Артур Бюиссен, Вадим Гудсмитс, Клодин Пеллетье, Женни Клев, Роже Де Моэрлос-Описание: Однажды вечером женщина приходит в полицейский участок, чтобы признаться в убийстве своего мужа, совершенном десять лет назад, мужа, который издевался над ней и регулярно избивал ее. Несмотря на то, что следствие тогда пришло к выводу, что смерть была либо случайной, либо наступила в результате самоубийства, вдова покойного заявляет, что это все — дело ее рук.-Качество видео: HDRip | Исходник
    Формат видео: AVI
    Видео: 704x320 (2.20:1), 24.000 fps, XviD build 50 ~1651 kbps avg, 0.30 bit/pixel
    Аудио: 48 kHz, AC3 Dolby Digital, 3/2 (L,C,R,l,r) + LFE ch, ~448 kbps-Скачать сэмпл-


    Format                      : AVI
    Format/Info                 : Audio Video Interleave
    File size                   : 1.46 GiB
    Duration                    : 1h 39mn
    Overall bit rate            : 2 109 Kbps
    Writing application         : VirtualDubMod | || (build 2550/release)
    Writing library             : VirtualDubMod build 2550/release
    ID                          : 0
    Format                      : MPEG-4 Visual
    Format profile              : Advanced Simple@L5
    Format settings, BVOP       : 1
    Format settings, QPel       : No
    Format settings, GMC        : No warppoints
    Format settings, Matrix     : Custom
    Codec ID                    : XVID
    Codec ID/Hint               : XviD
    Duration                    : 1h 39mn
    Bit rate                    : 1 651 Kbps
    Width                       : 704 pixels
    Height                      : 320 pixels
    Display aspect ratio        : 2.2:1
    Frame rate                  : 24.000 fps
    Color space                 : YUV
    Chroma subsampling          : 4:2:0
    Bit depth                   : 8 bits
    Scan type                   : Progressive
    Compression mode            : Lossy
    Bits/(Pixel*Frame)          : 0.305
    Stream size                 : 1.15 GiB (78%)
    Writing library             : XviD 1.2.1 (UTC 2008-12-04)
    ID                          : 1
    Format                      : AC-3
    Format/Info                 : Audio Coding 3
    Mode extension              : CM (complete main)
    Format settings, Endianness : Big
    Codec ID                    : 2000
    Duration                    : 1h 39mn
    Bit rate mode               : Constant
    Bit rate                    : 448 Kbps
    Channel(s)                  : 6 channels
    Channel positions           : Front: L C R, Side: L R, LFE
    Sampling rate               : 48.0 KHz
    Frame rate                  : 31.250 fps (1536 spf)
    Compression mode            : Lossy
    Stream size                 : 319 MiB (21%)
    Alignment                   : Split accross interleaves
    Interleave, duration        : 42 ms (1.00 video frame)
    Interleave, preload duratio : 500 ms


    Download .torrent

    Download free and at maximum speed!

    How to Download? · What is a torrent? · Ratings and Limitations

    The site does not extend and does not store electronic(digital) versions of products, and only gives access to a reference catalogue created by users on torrent-files which contain only lists of the hash-sums, the earnest entreaty, with complaints(abuse) to access directly to the user. Files for an exchange on tracker are given by users of a site, and the administration does not bear the responsibility for their maintenance. The request to not fill in the files protected by copyrights, and also files of the illegal maintenance!

    [Profile] [PM]
    Display posts from previous:    
    Reply to topic

    The time now is: Today 07:29

    All times are GMT + 3 Hours

    You cannot post new topics in this forum
    You cannot reply to topics in this forum
    You cannot edit your posts in this forum
    You cannot delete your posts in this forum
    You cannot vote in polls in this forum
    You cannot attach files in this forum
    You cannot download files in this forum