BitTorrentTracker PerecTracker.org
BitTorrentTracker PerecTracker.org
    
Регистрация  ·  Вход
 
 · 
Забыли пароль?

  • Красуня та чудовисько / Beauty and the Beast / Сезон 2 (1-22 серії з 22) (Рік Бота, Стюарт Гіллард, Майрзі Алмас) [2013 р., драма, романтичний, детектив, фантастика, WEB-DLRip] DVO (К1) Ukr + Original

    Ответить на тему
     
    Автор Сообщение

    older

    Создавать темы 12-Дек-2015 07:54

           

    [Цитировать]

    Красуня та чудовисько / Beauty and the Beast / Сезон 2

    Рік випуску: 2013
    Країна: Канада
    Кіностудія / кінокомпанія: Take 5 Productions, Whizbang Films, CBS Television Studios
    Жанр: драма, романтичний, детектив, фантастика
    Тривалість: 1 серія: 00:42:00 хвилини (цілком серій: 22)
    Субтитри: відсутні
    Переклад: двоголосий, закадровий (професійний) - К1
    Аудіодоріжка: українська, англійська-Режисер: Рік Бота, Стюарт Гіллард, Майрзі Алмас
    Сценарій: Шеррі Купер, Рон Кослоу, Дженніфер Левін
    Продюсер: Джон Вебер, Френк Сіракузи, Білл Годдар-Світова прем'єра: 7 жовтня 2013
    Обмеження за віком: немає- -Актори: Крістін Кройк, Джей Райан, Остін Басіс, Ніна Лізандрелло-Сюжет: Кетрін Чандлер - молода дівчина-детектив, яка ніяк не може оговтатися після драми, що трапилась багато років тому. Мати дівчини вбили у неї на очах, і лише завдяки несподіваному рятівникові самій Кетрін вдалося вижити. Вона запам'ятала цю людину. Втім, у тому, що він не просто людина, у неї не було жодних сумнівів... Минають роки, і Кетрін, розслідуючи черговий злочин, зустрічає Вінсента Келлера - ветерана війни в Афганістані, який, взагалі-то, давно офіційно мертвий. Міс Чандлер з'ясовує, що саме Вінсент врятував її у підлітковому віці, і що він через генетичний експеримент військових іноді перетворюється на якусь подобу перевертня. Як будуть розвиватися подальші стосунки головних героїв? Чи зможе чудовисько-Вінсент стати другом (а може і кимось більшим) для красуні Кетрін? Відомо лише одне - дівчину в біді він не залишить і стане її вірним напарником у непростій справі розкриття злочинів.-Формат: AVI
    Якість: WEB-DLRip
    Відео кодек: XviD
    Відео: 720x400 (16:9), 1407 kbps, 23.976 fps, 0.204 bit/pixel
    Аудіо 1: AC3, 48 kHz, 2 ch, 192 kbps - К1
    Аудіо 2: AC3, 48 kHz, 2 ch, 192 kbps - Original-Джерело:

    MediaInfo

    Общее
    Полное имя                               : \Beauty.and.the.Beast.s02.WEB-DLRip.Ukr.Eng\Beauty.and.the.Beast.s02e01.WEB-DLRip.Ukr.Eng.avi
    Формат                                   : AVI
    Формат/Информация                        : Audio Video Interleave
    Размер файла                             : 550 Мбайт
    Продолжительность                        : 42 м.
    Общий поток                              : 1805 Кбит/сек
    Тема                                     : Beauty and the Beast. Season 2, Episode 1. Who Am I?
    Программа кодирования                    : VirtualDubMod 1.5.10.2 (build 2540/release)
    Библиотека кодирования                   : VirtualDubMod build 2540/release
    Видео
    Идентификатор                            : 0
    Формат                                   : MPEG-4 Visual
    Профиль формата                          : Advanced Simple@L5
    Параметр BVOP формата                    : 2
    Параметр QPel формата                    : Нет
    Параметр GMC формата                     : Без точки перехода
    Параметр матрицы формата                 : Default (H.263)
    Идентификатор кодека                     : XVID
    Идентификатор кодека/Подсказка           : XviD
    Продолжительность                        : 42 м.
    Битрейт                                  : 1407 Кбит/сек
    Ширина                                   : 720 пикселей
    Высота                                   : 400 пикселей
    Соотношение сторон                       : 16:9
    Частота кадров                           : 23,976 кадра/сек
    Цветовое пространство                    : YUV
    Субдискретизация насыщенности            : 4:2:0
    Битовая глубина                          : 8 бит
    Тип развёртки                            : Прогрессивная
    Метод сжатия                             : С потерями
    Бит/(Пиксели*Кадры)                      : 0.204
    Размер потока                            : 428 Мбайт (78%)
    Библиотека кодирования                   : XviD 65
    Аудио #1
    Идентификатор                            : 1
    Формат                                   : AC-3
    Формат/Информация                        : Audio Coding 3
    Расширение режима                        : CM (complete main)
    Параметр Endianness формата              : Big
    Идентификатор кодека                     : 2000
    Продолжительность                        : 42 м.
    Вид битрейта                             : Постоянный
    Битрейт                                  : 192 Кбит/сек
    Каналы                                   : 2 канала
    Расположение каналов                     : Front: L R
    Частота                                  : 48,0 КГц
    Битовая глубина                          : 16 бит
    Метод сжатия                             : С потерями
    Размер потока                            : 58,5 Мбайт (11%)
    Выравнивание                             : Разделение по промежуткам
    Продолжительность промежутка             : 42  мс. (1,00 видеокадр)
    Время предзагрузки промежутка            : 500  мс.
    Заголовок                                : Ukrainian
    Аудио #2
    Идентификатор                            : 2
    Формат                                   : AC-3
    Формат/Информация                        : Audio Coding 3
    Расширение режима                        : CM (complete main)
    Параметр Endianness формата              : Big
    Идентификатор кодека                     : 2000
    Продолжительность                        : 42 м.
    Вид битрейта                             : Постоянный
    Битрейт                                  : 192 Кбит/сек
    Каналы                                   : 2 канала
    Расположение каналов                     : Front: L R
    Частота                                  : 48,0 КГц
    Битовая глубина                          : 16 бит
    Метод сжатия                             : С потерями
    Размер потока                            : 58,5 Мбайт (11%)
    Выравнивание                             : Разделение по промежуткам
    Продолжительность промежутка             : 42  мс. (1,00 видеокадр)
    Время предзагрузки промежутка            : 500  мс.
    Заголовок                                : English

    Скріншоти

    Перелік серій

    Beauty and the Beast. Season 2, Episode 1. Who Am I?
    Beauty and the Beast. Season 2, Episode 2. Kidnapped
    Beauty and the Beast. Season 2, Episode 3. Liar, Liar
    Beauty and the Beast. Season 2, Episode 4. Hothead
    Beauty and the Beast. Season 2, Episode 5. Reunion
    Beauty and the Beast. Season 2, Episode 6. Father Knows Best
    Beauty and the Beast. Season 2, Episode 7. Guess Who's Coming to Dinner?
    Beauty and the Beast. Season 2, Episode 8. Man or Beast?
    Beauty and the Beast. Season 2, Episode 9. Don't Die on Me
    Beauty and the Beast. Season 2, Episode 10. Ancestors
    Beauty and the Beast. Season 2, Episode 11. Held Hostage
    Beauty and the Beast. Season 2, Episode 12. Recipe for Disaster
    Beauty and the Beast. Season 2, Episode 13. Till Death
    Beauty and the Beast. Season 2, Episode 14. Redemption
    Beauty and the Beast. Season 2, Episode 15. Catch Me If You Can
    Beauty and the Beast. Season 2, Episode 16. About Last Night
    Beauty and the Beast. Season 2, Episode 17. Beast Is the New Black
    Beauty and the Beast. Season 2, Episode 18. Cat and Mouse
    Beauty and the Beast. Season 2, Episode 19. Cold Case
    Beauty and the Beast. Season 2, Episode 20. Ever After
    Beauty and the Beast. Season 2, Episode 21. Operation Fake Date
    Beauty and the Beast. Season 2, Episode 22. Déjà Vu
    Скачать .torrent

    Скачать торрент-файл бесплатно и на максимальной скорости!

    Как скачивать? · Что такое торрент? · Рейтинг и ограничения

    !ВНИМАНИЕ!
    Сайт не распространяет и не хранит электронные версии произведений, а занимается лишь лишь предоставлением доступа к создаваемому пользователями каталогу ссылок на торрент-файлы, которые содержат только списки хеш-сумм, убедительная просьба с жалобами обращаться напрямую к пользователю. Файлы для обмена на трекере предоставлены пользователями сайта, и администрация не несёт ответственности за их содержание. Просьба не заливать файлы, защищенные авторскими правами, а также файлы нелегального содержания!


    _________________
    [Профиль] [ЛС]
    Показать сообщения:    
    Ответить на тему

    Текущее время: Сегодня, в 13:46

    Часовой пояс: GMT + 2



    Вы не можете начинать темы
    Вы не можете отвечать на сообщения
    Вы не можете редактировать свои сообщения
    Вы не можете удалять свои сообщения
    Вы не можете голосовать в опросах
    Вы не можете прикреплять файлы к сообщениям
    Вы не можете скачивать файлы