BitTorrentTracker PerecTracker.org
BitTorrentTracker PerecTracker.org
    
Регистрация  ·  Вход
 
 · 
Забыли пароль?

  • Покора / Compliance (Крейґ Зобель) [2012 р., трилер, драма, кримінал, BDRip] MVO (Три Крапки) Ukr + Original + Sub Eng

    Ответить на тему
     
    Автор Сообщение

    older

    Создавать темы 11-Дек-2015 17:06

           

    [Цитировать]

    Покора / Compliance

    Рік випуску: 2012
    Країна: США
    Кіностудія / кінокомпанія: Magnolia Pictures
    Жанр: трилер, драма, кримінал
    Тривалість: 01:29:46
    Субтитри: англійські
    Переклад: багатоголосий, закадровий (професійний) - Товариство "Три Крапки"
    Аудіодоріжка: українська, англійська-Режисер: Крейґ Зобель
    Сценарій: Крейґ Зобель
    Продюсер: Тайлер Девідсон, Софі Лін, Ліза Мускат-Світова прем'єра: 21 січня 2012
    Обмеження за віком: немає- -Актори: Енн Дауд, Дріма Уокер, Пет Хілі, Білл Кемп, Філіп Еттінджер, Джеймс МакКеффрі, Метт Сервітто, Ешлі Еткінсон, Ральф Йован Родрігез, Стівен Пейн, Амелія Фоулер, Реймонд МакЕнеллі, Ребекка Хендерсон, Джеффрі Гроувер, Майкл Ебботт-Сюжет: Менеджеру фаст-фуду телефонує невідомий та представляється офіцером поліції. Він звинувачує молоду офіціантку Бекі у крадіжці грошей з сумочки клієнтки. Менеджер та його підлеглі, керуючись рекомендаціями по телефону, радо допомагають представнику закону викрити злодія. Роздягнувши дівчину і піддавши її різного роду моральним знущанням, майже ніхто з них не засумнівався у авторитеті людині що віддавала накази по телефону. А може ця людина стала для них шансом дати волю свої темній сутності? Фільм заснований на реальних подіях. В основу покладено експеримент Мілґрема.-Формат: AVI
    Якість: BDRip
    Відео кодек: XviD
    Відео: 720x304 (2,35:1), 1554 kbps, 23.976 fps, 0.296 bit/pixel
    Аудіо 1: AAC, 48 kHz, 2 ch, 163 kbps - "Три Крапки"
    Аудіо 2: AC3, 48 kHz, 6 ch, 384 kbps - Original
    Субтитри: мова: англійська, тип: програмні (м’які), формат: srt-Джерело:

    MediaInfo

    Общее
    Полное имя                               : \Compliance.(2012) BDRip [Ukr.Eng] [Hurtom]\Compliance.(2012) BDRip [Ukr.Eng] [Hurtom].avi
    Формат                                   : AVI
    Формат/Информация                        : Audio Video Interleave
    Профиль формата                          : OpenDML
    Настройки формата                        : rec
    Размер файла                             : 1,32 Гбайт
    Продолжительность                        : 1 ч. 29 м.
    Общий поток                              : 2112 Кбит/сек
    Название фильма                          : 222
    Программа кодирования                    : AVI-Mux GUI 1.17.8.3, Feb 16 201019:42:50
    Видео
    Идентификатор                            : 0
    Формат                                   : MPEG-4 Visual
    Профиль формата                          : Advanced Simple@L5
    Параметр BVOP формата                    : 1
    Параметр QPel формата                    : Нет
    Параметр GMC формата                     : Без точки перехода
    Параметр матрицы формата                 : Выборочная
    Идентификатор кодека                     : XVID
    Идентификатор кодека/Подсказка           : XviD
    Продолжительность                        : 1 ч. 29 м.
    Битрейт                                  : 1554 Кбит/сек
    Ширина                                   : 720 пикселей
    Высота                                   : 304 пикселя
    Соотношение сторон                       : 2,35:1
    Частота кадров                           : 23,976 кадра/сек
    Цветовое пространство                    : YUV
    Субдискретизация насыщенности            : 4:2:0
    Битовая глубина                          : 8 бит
    Тип развёртки                            : Прогрессивная
    Метод сжатия                             : С потерями
    Бит/(Пиксели*Кадры)                      : 0.296
    Размер потока                            : 998 Мбайт (74%)
    Библиотека кодирования                   : XviD 65
    Аудио #1
    Идентификатор                            : 1
    Формат                                   : AAC
    Формат/Информация                        : Advanced Audio Codec
    Профиль формата                          : LC
    Идентификатор кодека                     : FF
    Продолжительность                        : 1 ч. 29 м.
    Битрейт                                  : 163 Кбит/сек
    Каналы                                   : 2 канала
    Расположение каналов                     : Front: L R
    Частота                                  : 48,0 КГц
    Метод сжатия                             : С потерями
    Размер потока                            : 104 Мбайт (8%)
    Выравнивание                             : Соединение по промежуткам
    Продолжительность промежутка             : 21  мс. (0,51 видеокадр)
    Время предзагрузки промежутка            : 4  мс.
    Аудио #2
    Идентификатор                            : 2
    Формат                                   : AC-3
    Формат/Информация                        : Audio Coding 3
    Расширение режима                        : CM (complete main)
    Параметр Endianness формата              : Big
    Идентификатор кодека                     : 2000
    Продолжительность                        : 1 ч. 29 м.
    Вид битрейта                             : Постоянный
    Битрейт                                  : 384 Кбит/сек
    Каналы                                   : 6 каналов
    Расположение каналов                     : Front: L C R, Side: L R, LFE
    Частота                                  : 48,0 КГц
    Битовая глубина                          : 16 бит
    Метод сжатия                             : С потерями
    Размер потока                            : 247 Мбайт (18%)
    Выравнивание                             : Соединение по промежуткам
    Продолжительность промежутка             : 64  мс. (1,53 видеокадра)
    Время предзагрузки промежутка            : 192  мс.
    Текст
    Идентификатор                            : 3
    Размер потока                            : 123 Кбайт (0%)
    Заголовок                                : Compliance.2012.DUAL.BDRip.1,46Gb.XviD.AC3.eng full

    Скріншоти

    Скачать .torrent

    Скачать торрент-файл бесплатно и на максимальной скорости!

    Как скачивать? · Что такое торрент? · Рейтинг и ограничения

    !ВНИМАНИЕ!
    Сайт не распространяет и не хранит электронные версии произведений, а занимается лишь лишь предоставлением доступа к создаваемому пользователями каталогу ссылок на торрент-файлы, которые содержат только списки хеш-сумм, убедительная просьба с жалобами обращаться напрямую к пользователю. Файлы для обмена на трекере предоставлены пользователями сайта, и администрация не несёт ответственности за их содержание. Просьба не заливать файлы, защищенные авторскими правами, а также файлы нелегального содержания!


    _________________
    [Профиль] [ЛС]

    -746

    Создавать темы 03-Июн-2016 21:40 (спустя 5 месяцев 23 дня)

           

    Топік був перенесений з форуму Закордонне кіно українською у форум Фільми 2011-2015 українською

    rechyn

    _________________
    Как бы ты высоко не летал, не забывай, с кем ты ползал..
     
    Показать сообщения:    
    Ответить на тему

    Текущее время: Сегодня, в 22:23

    Часовой пояс: GMT + 2



    Вы не можете начинать темы
    Вы не можете отвечать на сообщения
    Вы не можете редактировать свои сообщения
    Вы не можете удалять свои сообщения
    Вы не можете голосовать в опросах
    Вы не можете прикреплять файлы к сообщениям
    Вы не можете скачивать файлы