BitTorrentTracker PerecTracker.org
BitTorrentTracker PerecTracker.org
    
Регистрация  ·  Вход
 
 · 
Забыли пароль?

  • Капитан Сокол / Капитан Фалкао / Capitão Falcão (Джоао Лейтао / João Leitão) [2015, Португалия, Комедия, BDRip] VO (Васька Куролесов)

    Ответить на тему
     
    Автор Сообщение

    rechyn

    Создавать темы 11-Дек-2015 13:53

           

    [Цитировать]

    Капитан Сокол / Капитан Фалкао / Capitão Falcão
    Страна: Португалия
    Жанр: Комедия
    Год выпуска: 2015
    Продолжительность: 01:46:33
    Перевод: Одноголосый закадровый Васька Куролесов по субтитрам Enigma
    Cубтитры: нет
    Оригинальная аудиодорожка: нет
    Режиссер: Джоао Лейтао / João Leitão
    В ролях: Гонсало Уэддингтон, Дэвид Чан Кордейро, Жозе Пинту, Тьяго Родригез
    Описание: Комедия Капитан Фалкао рассказывает историю португальского супергероя, который служит новому правительству страны, пришедшему к власти с помощью военного переворота. Вместе с Путо Партриджем, своим лучшим другом, капитан Фалкао успешно предотвращает все угрозы, возникающие вследствие происков врагов новых властей. Однако когда жители столицы сталкиваются с совершенно новой опасностью, даже прославленный герой оказывается бессилен... Удастся ли Капитану Фалкао справиться с могущественным и безжалостным противником?

    Сэмпл: http://multi-up.com/1079003
    Качество видео: BDRip (исходник CAPITÃO FALCÃO 2015 1080p Blu-ray EUR AVC DTS-HD Master 5.1 GMslbenfica)
    Формат видео: AVI
    Видео: XviD, 1759 Кбит/с, 720x304, 24.000 fps
    Аудио: AC-3, 2 ch, 192 Кбит/с, 48.0 KHz
    Доп.инфа: отдельное спасибо Floreliya, axytin за помощь в создании проекта!
    Релиз:

    MediaInfo

    General
    Complete name : G:\Capitao Falcao 2015_KypoJIecoB.avi
    Format : AVI
    Format/Info : Audio Video Interleave
    File size : 1.46 GiB
    Duration : 1h 46mn
    Overall bit rate : 1 960 Kbps
    Writing application : VirtualDubMod 1.5.10.2 (build 2540/release)
    Writing library : VirtualDubMod build 2540/release
    Video
    ID : 0
    Format : MPEG-4 Visual
    Format profile : Advanced Simple@L5
    Format settings, BVOP : 1
    Format settings, QPel : No
    Format settings, GMC : No warppoints
    Format settings, Matrix : Default (MPEG)
    Codec ID : XVID
    Codec ID/Hint : XviD
    Duration : 1h 46mn
    Bit rate : 1 759 Kbps
    Width : 720 pixels
    Height : 304 pixels
    Display aspect ratio : 2.35:1
    Frame rate : 24.000 fps
    Color space : YUV
    Chroma subsampling : 4:2:0
    Bit depth : 8 bits
    Scan type : Progressive
    Compression mode : Lossy
    Bits/(Pixel*Frame) : 0.335
    Stream size : 1.31 GiB (90%)
    Writing library : XviD 1.2.1 (UTC 2008-12-04)
    Audio
    ID : 1
    Format : AC-3
    Format/Info : Audio Coding 3
    Mode extension : CM (complete main)
    Format settings, Endianness : Big
    Codec ID : 2000
    Duration : 1h 46mn
    Bit rate mode : Constant
    Bit rate : 192 Kbps
    Channel(s) : 2 channels
    Channel positions : Front: L R
    Sampling rate : 48.0 KHz
    Compression mode : Lossy
    Stream size : 146 MiB (10%)
    Alignment : Split accross interleaves
    Interleave, duration : 42 ms (1.00 video frame)
    Interleave, preload duration : 500 ms

    Скриншот c названием фильма

    Скриншоты

    Скачать .torrent

    Скачать торрент-файл бесплатно и на максимальной скорости!

    Как скачивать? · Что такое торрент? · Рейтинг и ограничения

    !ВНИМАНИЕ!
    Сайт не распространяет и не хранит электронные версии произведений, а занимается лишь лишь предоставлением доступа к создаваемому пользователями каталогу ссылок на торрент-файлы, которые содержат только списки хеш-сумм, убедительная просьба с жалобами обращаться напрямую к пользователю. Файлы для обмена на трекере предоставлены пользователями сайта, и администрация не несёт ответственности за их содержание. Просьба не заливать файлы, защищенные авторскими правами, а также файлы нелегального содержания!


    _________________
    [Профиль] [ЛС]
    Показать сообщения:    
    Ответить на тему

    Текущее время: Сегодня, в 19:58

    Часовой пояс: GMT + 2



    Вы не можете начинать темы
    Вы не можете отвечать на сообщения
    Вы не можете редактировать свои сообщения
    Вы не можете удалять свои сообщения
    Вы не можете голосовать в опросах
    Вы не можете прикреплять файлы к сообщениям
    Вы не можете скачивать файлы