BitTorrentTracker PerecTracker.org
BitTorrentTracker PerecTracker.org
    
Регистрация  ·  Вход
 
 · 
Забыли пароль?

  • Дневник горничной / Journal d\'une femme de chambre (Бенуа Жако / Benoît Jacquot) [2015, Франция, Драма, HDRip] Dub (iTunes)

    Ответить на тему
     
    Автор Сообщение

    rechyn

    Создавать темы 11-Дек-2015 01:20

           

    [Цитировать]

    Дневник горничной / Journal d'une femme de chambre
    Страна: Франция
    Жанр: Драма
    Год выпуска: 2015
    Продолжительность: 01:36:36
    Перевод: Профессиональный (дублированный) [iTunes]
    Cубтитры: нет
    Режиссер: Бенуа Жако/Benoît Jacquot
    В ролях: Леа Сейду, Венсан Линдон, Клотильд Молле, Херв Пьер, Патрик д Асумсао, Венсан Лакост, Жозефин Деренне, Доминик Реймон, Розетт
    Описание: Жизнь юной горничной Селестины полна неожиданностей. Её внешность — вызов всему мужскому полу. Она сексапильна настолько, что сама не осознаёт этого. Отправляясь на службу в провинцию, она не ждёт больших перемен в своей судьбе. Но жизнь в доме помещиков Ланлэр оказывается не слишком сладкой. Благопристойное внешне семейство порочно по своей сути. Жадная и озлобленная на весь мир хозяйка получает удовольствие, прилюдно унижая юную служанку, а её супруг не может пройти мимо юной красотки и всеми силами старается склонить Селестин к порочной связи.
    Оказавшись в сложной ситуации, юная горничная, лишенная возможности поделиться проблемами с близкими людьми, решает начать вести дневник. И очень скоро все секреты обитателей поместья становятся частью истории, изложенной на его страницах. Но куда заведут Селестину её попытки познать жизнь буржуазного общества изнутри?
    Вынужденная лавировать между интересами своих господ девушка неожиданно находит поддержку в лице садовника Жозефа — таинственного мужчины с тёмным прошлым, чья внешность заставила трепетать не одно женское сердце. Что заставляет Селестину довериться этому далеко не юному человеку, скрывающему собственные скелеты в шкафу? И что таит ото всех она сама? Неужели интриги и козни, которые она строит, извлекая для себя немалую пользу, — лишь следствие моральной травмы, когда-то давно нанесенной ей таким же развращенным представителем буржуазного общества, как и её хозяева?
    Жизнь прислуги даже во Франции в конце девятнадцатого века мало похожа на райские кущи. Об этом хорошо известно и Жозефу (Венсан Линдон), и самой Селестин. Можно не уступать господам, благородным по происхождению, в нарядах и интеллекте, но слуга всё равно остаётся человеком второго сорта, годным лишь на низкоквалифицированный труд. Осознание этого буквально сводит героиню картины «Дневник горничной» с ума. Селестин уверена в том, что рождена блистать, и будет жестко мстить тем, кто смеет напоминать ей об истинном месте, которое горничная занимает в обществе.

    Доп. информация: Фильм «Дневник горничной» французского режиссера Бенуа Жако, уже известного широкой публике по таким киноработам, как «Маркиз де Сад» и «Крылья голубки», создан по мотивам одноименного романа Октава Мирабо, уже пережившего две успешные экранизации в интерпретации легендарных Луиса Бунюэля и Жана Ренуара.
    Сэмпл: http://sendfile.su/1182046
    Качество видео: HDRip
    Формат видео: AVI
    Видео: XviD, 720x304, 1646 Kbps, 24.000 fps.
    Аудио: AC3, 6 ch, 384 Kbps.

    MI

    Format : AVI
    Format/Info : Audio Video Interleave
    File size : 1.37 GiB
    Duration : 1h 36mn
    Overall bit rate : 2 037 Kbps
    Writing application : VirtualDubMod 1.5.10.2 (build 2540/release)
    Writing library : VirtualDubMod build 2540/release
    Video
    ID : 0
    Format : MPEG-4 Visual
    Format profile : Advanced Simple@L5
    Format settings, BVOP : 2
    Format settings, QPel : No
    Format settings, GMC : No warppoints
    Format settings, Matrix : Default (MPEG)
    Codec ID : XVID
    Codec ID/Hint : XviD
    Duration : 1h 36mn
    Bit rate : 1 644 Kbps
    Width : 720 pixels
    Height : 304 pixels
    Display aspect ratio : 2.35:1
    Frame rate : 24.000 fps
    Color space : YUV
    Chroma subsampling : 4:2:0
    Bit depth : 8 bits
    Scan type : Progressive
    Compression mode : Lossy
    Bits/(Pixel*Frame) : 0.313
    Stream size : 1.10 GiB (81%)
    Writing library : XviD 1.2.1 (UTC 2008-12-04)
    Audio
    ID : 1
    Format : AC-3
    Format/Info : Audio Coding 3
    Mode extension : CM (complete main)
    Format settings, Endianness : Big
    Codec ID : 2000
    Duration : 1h 36mn
    Bit rate mode : Constant
    Bit rate : 384 Kbps
    Channel(s) : 6 channels
    Channel positions : Front: L C R, Side: L R, LFE
    Sampling rate : 48.0 KHz
    Bit depth : 16 bits
    Compression mode : Lossy
    Stream size : 264 MiB (19%)
    Alignment : Split accross interleaves
    Interleave, duration : 42 ms (1.00 video frame)
    Interleave, preload duration : 500 ms

    Скриншоты

    Скачать .torrent

    Скачать торрент-файл бесплатно и на максимальной скорости!

    Как скачивать? · Что такое торрент? · Рейтинг и ограничения

    !ВНИМАНИЕ!
    Сайт не распространяет и не хранит электронные версии произведений, а занимается лишь лишь предоставлением доступа к создаваемому пользователями каталогу ссылок на торрент-файлы, которые содержат только списки хеш-сумм, убедительная просьба с жалобами обращаться напрямую к пользователю. Файлы для обмена на трекере предоставлены пользователями сайта, и администрация не несёт ответственности за их содержание. Просьба не заливать файлы, защищенные авторскими правами, а также файлы нелегального содержания!


    _________________
    [Профиль] [ЛС]
    Показать сообщения:    
    Ответить на тему

    Текущее время: Сегодня, в 02:33

    Часовой пояс: GMT + 2



    Вы не можете начинать темы
    Вы не можете отвечать на сообщения
    Вы не можете редактировать свои сообщения
    Вы не можете удалять свои сообщения
    Вы не можете голосовать в опросах
    Вы не можете прикреплять файлы к сообщениям
    Вы не можете скачивать файлы