BitTorrentTracker PerecTracker.org
BitTorrentTracker PerecTracker.org
    
Регистрация  ·  Вход
 
 · 
Забыли пароль?

  • [ATV3] Выхода нет / No Escape (Джон Эрик Даудл / John Erick Dowdle ) [2015, США, Боевик, триллер, BDRip, HD (1080p)] DUB + Original + sub (rus, eng)

    Ответить на тему
     
    Автор Сообщение

    Flirldrerve

    Создавать темы 10-Дек-2015 16:56

           

    [Цитировать]

    Выхода нет / No Escape
    «Как далеко ты зайдёшь, чтобы защитить тех, кого любишь»
    7.014 / 10 6.80 / 10
    -Год выпуска: 2015
    Страна: США
    Жанр: Боевик, триллер
    Продолжительность: 01:43:07
    Перевод: Дублированный (IPTV)
    Оригинальная аудиодорожка: Есть
    Cубтитры: Русские, Английские
    Режиссёр: Джон Эрик Даудл
    Сценарий: Джон Эрик Даудл, Дрю Даудл
    Продюсер: Дрю Даудл, Дэвид Ланкастер, Мишель Литвак
    Оператор: Лео Энстен
    Композитор: Марко Белтрами, Бак Сандерс
    Художник: Арвиндер Грюал, Бунтови «Тор» Тоипасас, Энни Блум
    Монтаж: Эллиот Гринберг
    В ролях: Оуэн Уилсон, Лэйк Белл, Пирс Броснан, Стерлинг Джеринс, Клер Джир, Thanawut Ketsaro, Чатчаваи Камонсакпитак, Сахайак Бунсанакит, Танапол Чуксрида, Нопханд Буньяй
    Бюджет: $5 000 000
    Сборы в США: $27 288 872
    Сборы в мире: + $27 130 000 = $54 418 872
    Сборы в России: $50 764
    Мировая премьера: 26 августа 2015
    Премьера (РФ): 1 октября 2015, «Top Film Distribution»
    Описание: Семья техасского инженера Джека Двайера прилетает в неназванную азиатскую страну. Главу семейства ожидает работа в солидной инжиниринговой корпорации, новая карьера и заманчивые перспективы. Но переехавшая в поисках лучшей жизни на другой край света американская семья оказывается в огне охватившего страну военного переворота. Как далеко сможет зайти загнанный в угол человек, чтобы спасти жену и детей от вооруженных радикалов, объявивших охоту на непрошенных гостей-иностранцев?-Качество исходника: Blu-Ray (BlueBird)
    Качество: BDRip
    Тип: HD (1080p)
    Контейнер: M4V
    Видео: H.264, 1920x1040, 1.85:1, 8 000 Kbps, 23.976 fps
    Аудио 1: Русский/Дублированный (IPTV), AAC / 2.0 / 155 Kbps / 48.0 KHz
    Аудио 2: Английский/Оригинальная дорожка , AAC / 2.0 / 156 Kbps / 48.0 KHz
    Аудио 3: Русский/Дублированный (IPTV), AC-3 / 5.1 / 448 Kbps / 48.0 KHz
    Аудио 4: Английский/Оригинальная дорожка , AC-3 / 5.1 / 640 Kbps / 48.0 KHz
    Субтитры 1: Русские полные
    Субтитры 2: Английские полные
    -

    iTunes Meta Tags

    Sort Name: No Escape
    XID: Apple:vendor_id:2015-625402
    contentID: 1033632342
    Copyright: © 2014 COUP PICTURES, LLC. All Rights Reserved.
    Screenwriters: Джон Эрик Даудл, Дрю Даудл
    Producers: Дрю Даудл, Дэвид Ланкастер, Мишель Литвак
    Director: Джон Эрик Даудл
    Cast: Оуэн Уилсон, Лэйк Белл, Пирс Броснан, Стерлинг Джеринс, Thanawut Ketsaro, Чатчаваи Камонсакпитак, Сахайак Бунсанакит, Танапол Чуксрида, Нопханд Буньяй, Канарпат Финтиянг, Юрий Кудрявец, Екатерина Буцкая, Вячеслав Гиндин, Анна Соболева, Дмитрий Нежельский
    Studio: The Weinstein Company
    Rating: 5
    Long Description: Американец вместе со своей семьей переезжает в Юго-Восточную Азию, но мирно пожить там не удается: вокруг разгорается жестокий военный переворот.
    Description: Американец вместе со своей семьей переезжает в Юго-Восточную Азию, но мирно пожить там не удается: вокруг разгорается жестокий военный переворот.
    Release Date: 2015-08-26T08:00:00Z
    Genre: Action & Adventure
    Artist: John Erick Dowdle
    Name: No Escape

    MediaInfo

    General
    Complete name : /Users/imac/HandBrake/No Escape (1080p HD).m4v
    Format : MPEG-4
    Codec ID : M4V
    File size : 6.78 GiB
    Duration : 1h 43mn
    Overall bit rate mode : Variable
    Overall bit rate : 9 402 Kbps
    Movie name : No Escape
    Performer : John Erick Dowdle
    Director : Джон Эрик Даудл
    Actor : Оуэн Уилсон / Лэйк Белл / Пирс Броснан / Стерлинг Джеринс / Thanawut Ketsaro / Чатчаваи Камонсакпитак / Сахайак Бунсанакит / Танапол Чуксрида / Нопханд Буньяй / Канарпат Финтиянг / Юрий Кудрявец / Екатерина Буцкая / Вячеслав Гиндин / Анна Соболева / Дмитрий Нежельский
    Screenplay by : Джон Эрик Даудл / Дрю Даудл
    Producer : Дрю Даудл / Дэвид Ланкастер / Мишель Литвак
    Production studio : The Weinstein Company
    Genre : Action & Adventure
    ContentType : Short Film
    Description : Американец вместе со своей семьей переезжает в Юго-Восточную Азию, но мирно пожить там не удается: вокруг разгорается жестокий военный переворот.
    Recorded date : UTC 2015-08-26 08:00:00
    Encoded date : UTC 2015-12-10 09:38:09
    Tagged date : UTC 2015-12-10 10:04:14
    Copyright : © 2014 COUP PICTURES, LLC. All Rights Reserved.
    Cover : Yes
    Rating : None
    Title/Sort : No Escape
    LongDescription : Американец вместе со своей семьей переезжает в Юго-Восточную Азию, но мирно пожить там не удается: вокруг разгорается жестокий военный переворот.
    AppleStoreCatalogID : 1033632342
    Vendor : Apple:vendor_id:2015-625402
    ContentRating : mpaa|R|400|
    Video #1
    ID : 2
    Format : AVC
    Format/Info : Advanced Video Codec
    Format profile : High@L4
    Format settings, CABAC : Yes
    Format settings, ReFrames : 4 frames
    Codec ID : avc1
    Codec ID/Info : Advanced Video Coding
    Duration : 1h 43mn
    Source duration : 1h 43mn
    Bit rate : 8 000 Kbps
    Width : 1 920 pixels
    Height : 1 040 pixels
    Display aspect ratio : 1.85:1
    Frame rate mode : Variable
    Frame rate : 23.976 fps
    Minimum frame rate : 23.810 fps
    Maximum frame rate : 24.272 fps
    Color space : YUV
    Chroma subsampling : 4:2:0
    Bit depth : 8 bits
    Scan type : Progressive
    Bits/(Pixel*Frame) : 0.167
    Stream size : 5.76 GiB (85%)
    Source stream size : 5.76 GiB (85%)
    Title : Main Program
    Writing library : x264 core 142 r2479 dd79a61
    Encoding settings : cabac=1 / ref=4 / deblock=1:-2:-2 / analyse=0x3:0x133 / me=umh / subme=10 / psy=1 / psy_rd=1.00:0.15 / mixed_ref=1 / me_range=32 / chroma_me=1 / trellis=2 / 8x8dct=1 / cqm=0 / deadzone=21,11 / fast_pskip=0 / chroma_qp_offset=-3 / threads=36 / lookahead_threads=8 / sliced_threads=0 / nr=0 / decimate=0 / interlaced=0 / bluray_compat=0 / constrained_intra=0 / bframes=16 / b_pyramid=2 / b_adapt=2 / b_bias=0 / direct=3 / weightb=1 / open_gop=0 / weightp=2 / keyint=240 / keyint_min=24 / scenecut=40 / intra_refresh=0 / rc_lookahead=60 / rc=2pass / mbtree=1 / bitrate=8000 / ratetol=1.0 / qcomp=0.70 / qpmin=0 / qpmax=69 / qpstep=4 / cplxblur=20.0 / qblur=0.5 / vbv_maxrate=25000 / vbv_bufsize=25000 / nal_hrd=none / filler=0 / ip_ratio=1.40 / aq=1:1.00
    Language : English
    Encoded date : UTC 2015-12-10 09:38:10
    Tagged date : UTC 2015-12-10 09:38:32
    Color range : Limited
    Color primaries : BT.709
    Transfer characteristics : BT.709
    Matrix coefficients : BT.709
    Video #2
    ID : 9
    Format : JPEG
    Codec ID : jpeg
    Duration : 1h 43mn
    Bit rate mode : Variable
    Bit rate : 793 bps
    Width : 640 pixels
    Height : 346 pixels
    Display aspect ratio : 1.85:1
    Frame rate mode : Variable
    Frame rate : 0.003 fps
    Minimum frame rate : 0.002 fps
    Maximum frame rate : 0.004 fps
    Color space : YUV
    Chroma subsampling : 4:2:0
    Bit depth : 8 bits
    Compression mode : Lossy
    Bits/(Pixel*Frame) : 1.194
    Stream size : 516 KiB (0%)
    Title : Chapter Images
    Language : English
    Encoded date : UTC 2015-12-10 09:38:41
    Tagged date : UTC 2015-12-10 09:38:41
    Audio #1
    ID : 1
    Format : AAC
    Format/Info : Advanced Audio Codec
    Format profile : LC
    Codec ID : 40
    Duration : 1h 43mn
    Bit rate mode : Variable
    Bit rate : 155 Kbps
    Maximum bit rate : 245 Kbps
    Channel(s) : 2 channels
    Channel positions : Front: L R
    Sampling rate : 48.0 KHz
    Compression mode : Lossy
    Stream size : 114 MiB (2%)
    Title : Russian Stereo
    Language : Russian
    Encoded date : UTC 2015-12-10 09:38:09
    Tagged date : UTC 2015-12-10 09:38:33
    Audio #2
    ID : 3
    Format : AAC
    Format/Info : Advanced Audio Codec
    Format profile : LC
    Codec ID : 40
    Duration : 1h 43mn
    Bit rate mode : Variable
    Bit rate : 156 Kbps
    Maximum bit rate : 241 Kbps
    Channel(s) : 2 channels
    Channel positions : Front: L R
    Sampling rate : 48.0 KHz
    Compression mode : Lossy
    Stream size : 115 MiB (2%)
    Title : English Stereo
    Language : English
    Encoded date : UTC 2015-12-10 09:38:10
    Tagged date : UTC 2015-12-10 09:38:33
    Audio #3
    ID : 4
    Format : AC-3
    Format/Info : Audio Coding 3
    Mode extension : CM (complete main)
    Format settings, Endianness : Big
    Codec ID : ac-3
    Duration : 1h 43mn
    Bit rate mode : Constant
    Bit rate : 448 Kbps
    Channel(s) : 6 channels
    Channel positions : Front: L C R, Side: L R, LFE
    Sampling rate : 48.0 KHz
    Bit depth : 16 bits
    Compression mode : Lossy
    Stream size : 331 MiB (5%)
    Title : Russian DD 5.1
    Language : Russian
    Encoded date : UTC 2015-12-10 09:38:10
    Tagged date : UTC 2015-12-10 09:38:15
    Audio #4
    ID : 5
    Format : AC-3
    Format/Info : Audio Coding 3
    Mode extension : CM (complete main)
    Format settings, Endianness : Big
    Codec ID : ac-3
    Duration : 1h 43mn
    Bit rate mode : Constant
    Bit rate : 640 Kbps
    Channel(s) : 6 channels
    Channel positions : Front: L C R, Side: L R, LFE
    Sampling rate : 48.0 KHz
    Bit depth : 16 bits
    Compression mode : Lossy
    Stream size : 472 MiB (7%)
    Title : English DD 5.1
    Language : English
    Encoded date : UTC 2015-12-10 09:38:10
    Tagged date : UTC 2015-12-10 09:38:15
    Text #1
    ID : 6
    Format : Timed Text
    Muxing mode : sbtl
    Codec ID : tx3g
    Duration : 1h 37mn
    Bit rate mode : Variable
    Bit rate : 72 bps
    Stream size : 51.3 KiB (0%)
    Title : Russian full
    Language : Russian
    Encoded date : UTC 2015-12-10 09:38:10
    Tagged date : UTC 2015-12-10 09:38:10
    Text #2
    ID : 7
    Format : Timed Text
    Muxing mode : sbtl
    Codec ID : tx3g
    Duration : 1h 37mn
    Bit rate mode : Variable
    Bit rate : 52 bps
    Stream size : 37.1 KiB (0%)
    Title : English full
    Language : English
    Encoded date : UTC 2015-12-10 09:38:10
    Tagged date : UTC 2015-12-10 09:38:10
    Menu #1
    00:00:00.000 : Chapter 1
    00:04:10.167 : Chapter 2
    00:10:57.991 : Chapter 3
    00:18:40.828 : Chapter 4
    00:25:31.530 : Chapter 5
    00:34:40.870 : Chapter 6
    00:40:04.527 : Chapter 7
    00:46:11.394 : Chapter 8
    00:52:06.582 : Chapter 9
    00:57:36.953 : Chapter 10
    01:03:55.957 : Chapter 11
    01:11:22.612 : Chapter 12
    01:18:58.776 : Chapter 13
    01:25:01.596 : Chapter 14
    01:31:11.466 : Chapter 15
    01:37:39.145 : Chapter 16
    Menu #2
    ID : 8
    Codec ID : text
    Duration : 1h 43mn
    Language : English
    Encoded date : UTC 2015-12-10 09:38:33
    Tagged date : UTC 2015-12-10 09:38:33
    00:00:00.000 : Chapter 1
    00:04:10.167 : Chapter 2
    00:10:57.991 : Chapter 3
    00:18:40.828 : Chapter 4
    00:25:31.530 : Chapter 5
    00:34:40.870 : Chapter 6
    00:40:04.527 : Chapter 7
    00:46:11.394 : Chapter 8
    00:52:06.582 : Chapter 9
    00:57:36.953 : Chapter 10
    01:03:55.957 : Chapter 11
    01:11:22.612 : Chapter 12
    01:18:58.776 : Chapter 13
    01:25:01.596 : Chapter 14
    01:31:11.466 : Chapter 15
    01:37:39.145 : Chapter 16
    Bit rate mode : VBR

    x264 лог

    x264 [info]: frame I:843   Avg QP:16.50  size:158795
    x264 [info]: frame P:45934 Avg QP:20.02  size: 65286
    x264 [info]: frame B:101555 Avg QP:20.60  size: 30053
    x264 [info]: consecutive B-frames:  8.5%  9.7% 20.9% 11.8%  5.4% 42.3%  0.7%  0.1%  0.1%  0.0%  0.0%  0.1%  0.0%  0.0%  0.1%  0.1%  0.2%
    x264 [info]: mb I  I16..4: 13.2% 72.8% 14.0%
    x264 [info]: mb P  I16..4:  5.3% 19.2%  1.6%  P16..4: 47.9% 12.1%  7.6%  0.1%  0.0%    skip: 6.2%
    x264 [info]: mb B  I16..4:  0.3%  1.5%  0.1%  B16..8: 47.6%  9.3%  1.5%  direct: 8.4%  skip:31.2%  L0:46.6% L1:47.6% BI: 5.8%
    x264 [info]: 8x8 transform intra:74.2% inter:72.5%
    x264 [info]: direct mvs  spatial:98.6% temporal:1.4%
    x264 [info]: coded y,uvDC,uvAC intra: 76.7% 76.3% 38.1% inter: 29.7% 36.4% 10.6%
    x264 [info]: i16 v,h,dc,p: 20% 13% 11% 56%
    x264 [info]: i8 v,h,dc,ddl,ddr,vr,hd,vl,hu: 10%  7%  6% 10% 15% 14% 14% 12% 12%
    x264 [info]: i4 v,h,dc,ddl,ddr,vr,hd,vl,hu: 11%  9%  5% 10% 15% 14% 14% 11% 12%
    x264 [info]: i8c dc,h,v,p: 38% 24% 21% 18%
    x264 [info]: Weighted P-Frames: Y:1.4% UV:0.7%
    x264 [info]: ref P L0: 57.9%  8.5% 20.5%  9.9%  3.2%  0.0%
    x264 [info]: ref B L0: 85.2% 12.2%  2.6%
    x264 [info]: ref B L1: 93.2%  6.8%
    x264 [info]: kb/s:7997.51

    Скриншоты

    -

    Релиз подготовлен для просмотра на Apple TV, iPad, iPhone, iPod Touch.
    Для просмотра данного релиза на компьютере с ОС Windows рекомендуется использовать VLC media player
    Скачать .torrent

    Скачать торрент-файл бесплатно и на максимальной скорости!

    Как скачивать? · Что такое торрент? · Рейтинг и ограничения

    !ВНИМАНИЕ!
    Сайт не распространяет и не хранит электронные версии произведений, а занимается лишь лишь предоставлением доступа к создаваемому пользователями каталогу ссылок на торрент-файлы, которые содержат только списки хеш-сумм, убедительная просьба с жалобами обращаться напрямую к пользователю. Файлы для обмена на трекере предоставлены пользователями сайта, и администрация не несёт ответственности за их содержание. Просьба не заливать файлы, защищенные авторскими правами, а также файлы нелегального содержания!


    _________________
    [Профиль] [ЛС]
    Показать сообщения:    
    Ответить на тему

    Текущее время: Сегодня, в 16:37

    Часовой пояс: GMT + 2



    Вы не можете начинать темы
    Вы не можете отвечать на сообщения
    Вы не можете редактировать свои сообщения
    Вы не можете удалять свои сообщения
    Вы не можете голосовать в опросах
    Вы не можете прикреплять файлы к сообщениям
    Вы не можете скачивать файлы