BitTorrentTracker PerecTracker.org
BitTorrentTracker PerecTracker.org
    
Регистрация  ·  Вход
 
 · 
Забыли пароль?

  • Транс / Trance (Дэнни Бойл / Danny Boyle) [2013, Великобритания, Франция, триллер, драма, криминал, детектив, BDRip] Dub CEE

    Ответить на тему
     
    Автор Сообщение

    Light

    Создавать темы 10-Дек-2015 12:51

           

    [Цитировать]

    Транс / Trance
    «В подсознании. Вне закона»
    -Страна: Великобритания, Франция / Cloud Eight Films, Decibel Films, Film4
    Жанр: триллер, драма, криминал, детектив
    Год выпуска: 2013
    Продолжительность: 01:41:19
    Перевод: Профессиональный (дублированный) лицензия CEE
    Cубтитры: нет
    Режиссёр: Дэнни Бойл / Danny Boyle
    В ролях: Джеймс МакЭвой, Венсан Кассель, Розарио Доусон, Дэнни Сапани, Мэттью Кросс, Вахаб Ахмед Шейх, Марк Полтимор, Таппенс Мидлтон, Саймон Кунц, Майкл Шэйффер.
    Описание: Сотрудник аукционного дома Саймон отвечает за сохранность картин во время проведения аукциона и в случае опасности должен запереть картину в сейфе. Во время ограбления он получает удар по голове и просыпается в больнице с амнезией. Саймон единственный кто знает, где находится картина, которой нет ни в сейфе, ни у грабителей. Бандиты похищают и пытают его. А после неудавшийся попытки вспомнить, банда нанимает гипно-терапевта Элизабет, которая должна помочь Саймону восстановить местонахождение картины.-Рейтинг
    imdb.com: 7.0 (87 859)
    kinopoisk.ru: 7.232 (66 080)
    MPAA: - лицам до 17 лет обязательно присутствие взрослого-Сэмпл: http://multi-up.com/1078717-Качество видео: BDRip [BDRemux 1080p]
    Формат видео: AVI
    Видео: XviD build 65, 720x304 (2.37:1), 23.976 fps, ~1672 kbps avg, 0.319 bit/pixel
    Аудио: 48 kHz, AC3 Dolby Digital, 3/2 (L,C,R,l,r) + LFE ch, ~384 kbps avg (Dub)
    -

    MediaInfo

    General
    Complete name : D:\Trance.2013.Dub.BDRip.1,46Gb.XviD.AC3.avi
    Format : AVI
    Format/Info : Audio Video Interleave
    File size : 1.46 GiB
    Duration : 1h 41mn
    Overall bit rate : 2 065 Kbps
    Writing application : VirtualDubModRus 1.5.10.2 (build 2542/release)
    Writing library : VirtualDubMod build 2542/release
    Video
    ID : 0
    Format : MPEG-4 Visual
    Format profile : Advanced Simple@L5
    Format settings, BVOP : 1
    Format settings, QPel : No
    Format settings, GMC : No warppoints
    Format settings, Matrix : Custom
    Codec ID : XVID
    Codec ID/Hint : XviD
    Duration : 1h 41mn
    Bit rate : 1 672 Kbps
    Width : 720 pixels
    Height : 304 pixels
    Display aspect ratio : 2.35:1
    Frame rate : 23.976 fps
    Color space : YUV
    Chroma subsampling : 4:2:0
    Bit depth : 8 bits
    Scan type : Progressive
    Compression mode : Lossy
    Bits/(Pixel*Frame) : 0.319
    Stream size : 1.18 GiB (81%)
    Writing library : XviD 65
    Audio
    ID : 1
    Format : AC-3
    Format/Info : Audio Coding 3
    Mode extension : CM (complete main)
    Format settings, Endianness : Big
    Codec ID : 2000
    Duration : 1h 41mn
    Bit rate mode : Constant
    Bit rate : 384 Kbps
    Channel(s) : 6 channels
    Channel positions : Front: L C R, Side: L R, LFE
    Sampling rate : 48.0 KHz
    Bit depth : 16 bits
    Compression mode : Lossy
    Stream size : 278 MiB (19%)
    Alignment : Split accross interleaves
    Interleave, duration : 42 ms (1.00 video frame)
    Interleave, preload duration : 500 ms
    Title : Dub

    Скриншоты


    Скачать .torrent

    Скачать торрент-файл бесплатно и на максимальной скорости!

    Как скачивать? · Что такое торрент? · Рейтинг и ограничения

    !ВНИМАНИЕ!
    Сайт не распространяет и не хранит электронные версии произведений, а занимается лишь лишь предоставлением доступа к создаваемому пользователями каталогу ссылок на торрент-файлы, которые содержат только списки хеш-сумм, убедительная просьба с жалобами обращаться напрямую к пользователю. Файлы для обмена на трекере предоставлены пользователями сайта, и администрация не несёт ответственности за их содержание. Просьба не заливать файлы, защищенные авторскими правами, а также файлы нелегального содержания!


    _________________
    [Профиль] [ЛС]
    Показать сообщения:    
    Ответить на тему

    Текущее время: Сегодня, в 10:40

    Часовой пояс: GMT + 2



    Вы не можете начинать темы
    Вы не можете отвечать на сообщения
    Вы не можете редактировать свои сообщения
    Вы не можете удалять свои сообщения
    Вы не можете голосовать в опросах
    Вы не можете прикреплять файлы к сообщениям
    Вы не можете скачивать файлы