BitTorrentTracker PerecTracker.org
BitTorrentTracker PerecTracker.org
    
Регистрация  ·  Вход
 
 · 
Забыли пароль?

  • Цена сокровищ (Сергей Тарасов) [1992, Боевик, Приключения, VHSRip]

    Ответить на тему
     
    Автор Сообщение

    rechyn

    Создавать темы 09-Дек-2015 03:33

           

    [Цитировать]

    Цена сокровищ
    «Как найти пиратский клад?»
    Жанр: Боевик, Приключения
    Год выпуска: 1992
    Продолжительность: 01:22:45
    Режиссёр: Сергей Тарасов
    В ролях: Надежда Боргесани-Горшкова, Александр Кознов, Александр Иншаков, Лариса Лужина, Виктор Григорьев (IV), Павел Винник, Сергей Тарасов, Евгений Дегтяренко, Владимир Карпович, Александр Жизневский, Евгений Богородский, Владимир Козелков, Геннадий Макоев, Андрей Порошин, Г. Ламков, Иван Лаптев (II), Орлан Монгуш, Владимир Сапрыкин, В. Плахотнюк, Андрей Тюгай, Владимир Ферапонтов
    Описание: 1901 год. Южная Африка. Добровольцы из многих стран приезжали сражаться на стороне буров. Так и герой этого фильма, русский морской офицер в отставке, высокий, красивый и сильный, приехал волонтером. При весьма романтичных обстоятельствах он познакомился с певицей в ресторане - набил морду нескольким бандитам, по-хамски высказавшимся в ее адрес. А позже выясняется, что певица оказалась связной, и вместе они должны были по старой пиратской карте найти сокровища и закупить на них оружие. Разговор их подслушал подлый и хитрый главарь бандитов. Естественно, он со всей своей сворой пошел следом за уже влюбленными героями в Драконовы горы, где были спрятаны ценности. Какой будет "цена сокровищ", я думаю, любители приключений предпочтут узнать сами. Хорошие трюки ставил Иншаков со товарищи. (Иванов М.)
    Доп. информация: Оцифровка VHS (личный архив) и получение VHSRip alenavova
    Эксклюзив для perectracker.org. При размещении данного релиза на других сайтах ссылка на автора alenavova обязательна.

    Релиз
    Сэмпл: https://yadi.sk/i/jO7v8vlsm67TM
    Качество видео: VHSRip
    Формат видео: AVI
    Видео: 704x528 (1.33:1), 25 fps, XviD build 73 ~2162 kbps avg, 0.23 bit/pixel
    Аудио: 48 kHz, AC3 Dolby Digital, 2/0 (L,R) ch, ~192 kbps

    MediaInfo

    Цена сокровищ (by alenavova).avi
    Format : AVI
    Format/Info : Audio Video Interleave
    File size : 1.37 GiB
    Duration : 1h 22mn
    Overall bit rate : 2 364 Kbps
    Movie name : Цена сокровищ (by alenavova)
    Director : by alenavova
    Writing application : VirtualDubMod 1.5.10.3 | www.virtualdub-fr.org || (build 2550/release)
    Copyright : Edich2
    Comment : RuTracker.org
    Video
    ID : 0
    Format : MPEG-4 Visual
    Format profile : Advanced Simple@L5
    Format settings, BVOP : 1
    Format settings, QPel : No
    Format settings, GMC : No warppoints
    Format settings, Matrix : Custom
    Codec ID : XVID
    Codec ID/Hint : XviD
    Duration : 1h 22mn
    Bit rate : 2 162 Kbps
    Width : 704 pixels
    Height : 528 pixels
    Display aspect ratio : 4:3
    Frame rate : 25.000 fps
    Color space : YUV
    Chroma subsampling : 4:2:0
    Bit depth : 8 bits
    Scan type : Progressive
    Compression mode : Lossy
    Bits/(Pixel*Frame) : 0.233
    Stream size : 1.25 GiB (91%)
    Writing library : XviD 73
    Audio
    ID : 1
    Format : AC-3
    Format/Info : Audio Coding 3
    Mode extension : CM (complete main)
    Format settings, Endianness : Big
    Codec ID : 2000
    Duration : 1h 22mn
    Bit rate mode : Constant
    Bit rate : 192 Kbps
    Channel(s) : 2 channels
    Channel positions : Front: L R
    Sampling rate : 48.0 KHz
    Bit depth : 16 bits
    Compression mode : Lossy
    Stream size : 114 MiB (8%)
    Alignment : Split accross interleaves
    Interleave, duration : 40 ms (1.00 video frame)
    Interleave, preload duration : 500 ms

    Скриншоты


    Скачать .torrent

    Скачать торрент-файл бесплатно и на максимальной скорости!

    Как скачивать? · Что такое торрент? · Рейтинг и ограничения

    !ВНИМАНИЕ!
    Сайт не распространяет и не хранит электронные версии произведений, а занимается лишь лишь предоставлением доступа к создаваемому пользователями каталогу ссылок на торрент-файлы, которые содержат только списки хеш-сумм, убедительная просьба с жалобами обращаться напрямую к пользователю. Файлы для обмена на трекере предоставлены пользователями сайта, и администрация не несёт ответственности за их содержание. Просьба не заливать файлы, защищенные авторскими правами, а также файлы нелегального содержания!


    _________________
    [Профиль] [ЛС]
    Показать сообщения:    
    Ответить на тему

    Текущее время: Сегодня, в 10:43

    Часовой пояс: GMT + 2



    Вы не можете начинать темы
    Вы не можете отвечать на сообщения
    Вы не можете редактировать свои сообщения
    Вы не можете удалять свои сообщения
    Вы не можете голосовать в опросах
    Вы не можете прикреплять файлы к сообщениям
    Вы не можете скачивать файлы