BitTorrentTracker PerecTracker.org
BitTorrentTracker PerecTracker.org
    
Регистрация  ·  Вход
 
 · 
Забыли пароль?

  • Вспомнить всё / Total Recall (Лен Уайзман / Len Wiseman) [2012, США, Канада, фантастика, боевик, триллер, приключения, BDRip 1080p] [Расширенная версия / Extended Cut] Dub + 2xAVO (Гаврилов, Немахов) + VO (zamez) + Original Eng + Sub (Rus, Ukr, Eng)

    Ответить на тему
     
    Автор Сообщение

    Columb

    Создавать темы 05-Авг-2013 16:11

           

    [Цитировать]

    Вспомнить всё / Total Recall«Ты то, что ты помнишь»Расширенная версия / Extended CutГод выпуска: 2012
    Страна: США, Канада
    Жанр: фантастика, боевик, триллер, приключения
    Продолжительность: 02:10:16.307
    Перевод 1: Профессиональный (дублированный) Rus
    Перевод 2: Авторский (одноголосый закадровый) Андрей Гаврилов
    Перевод 3: Авторский (одноголосый закадровый) Юрий Немахов
    Перевод 4: Одноголосый закадровый Вячеслав zamez Ненормативная лексика
    Перевод 5: Профессиональный (дублированный) Ukr
    Оригинальная аудиодорожка: Английская
    Субтитры: Русские (Forced, Full, Commentary), украинские (Forced), английские (Full)
    Студия: Total Recall, Original Film, Prime Focus
    Режиссёр: Лен Уайзман / Len Wiseman
    В ролях: Колин Фаррелл, Кейт Бекинсейл, Джессика Бил, Брайан Крэнстон, Джон Чо, Билл Найи, Букем Вудбайн, Уилл Юн Ли, Милтон Барнс, Джеймс Макгоун и др.
    Описание: Он - обычный рабочий-строитель, живущий в маленькой квартирке в захудалом районе города будущего где-то в Новой Азии. Хотя собственная жизнь его в целом устраивает, он не может избавиться от чувства, что ему хочется чего-то большего. Потребность в новых будоражащих впечатлениях приводит его в офис компании «Вспомнить всё», имплантирующей в память своих клиентов воспоминания-фантазии, которые они могут получить не рискуя при этом пережить сами события в реальности. Пока герой выбирает, какие именно воспоминания ему приобрести, отряд спецназа штурмует комнату, где он находится, и уже было берет его под арест. К своему собственному удивлению, он молниеносно уничтожает весь отряд при помощи невероятных бойцовских навыков, о владении которыми он и не подозревал…
    Качество: BDRip 1080p (HDMaNiAcS)
    Контейнер: MKV
    Видео кодек: MPEG-4 AVC Video
    Аудио кодек: DTS Audio / Dolby Digital Audio
    Видео: MPEG-4 AVC Video / 11000 kbps / 1920x800p / 23,976 fps / 2.40:1 / 0.299 bit/pix / High@L4.1
    Аудио 1: Русский / Dolby Digital Audio / 5.1 / 48 kHz / 640 kbps / 16-bit / Dub
    Аудио 2: Русский / DTS Audio / 5.1 / 48 kHz / 1536 kbps / 24-bit / AVO Андрей Гаврилов
    Аудио 3: Русский / DTS Audio / 5.1 / 48 kHz / 1536 kbps / 24-bit / AVO Юрий Немахов
    Аудио 4: Русский / DTS Audio / 5.1 / 48 kHz / 1536 kbps / 16-bit / VO Вячеслав zamez
    Аудио 5: Украинский / Dolby Digital Audio / 5.1 / 48 kHz / 640 kbps / 16-bit / Dub
    Аудио 6: English / DTS Audio / 5.1 / 48 kHz / 1536 kbps / 24-bit / Оригинал
    Аудио 7: English / Dolby Digital Audio / 2.0 / 48 kHz / 192 kbps / 16-bit / Комментарии
    Навигация по главам: да
    Кинопоиск
    IMDB
    Blu-ray.com
    Сэмпл

    Скриншот c названием фильма

    Скриншоты

    MediaInfo

    C:\Вспомнить всё (Total Recall) 2012, США, Канада, фантастика, боевик, триллер, приключения, Extended Cut BDRip 1080p GORESEWAGE.mkv
    General
    Unique ID : 188522321434650543208388945118097731931 (0x8DD4141242C903F2ABBA57ABC1F6715B)
    Complete name : C:\Вспомнить всё (Total Recall) 2012, США, Канада, фантастика, боевик, триллер, приключения, Extended Cut BDRip 1080p GORESEWAGE.mkv
    Format : Matroska
    Format version : Version 4 / Version 2
    File size : 16.8 GiB
    Duration : 2h 10mn
    Overall bit rate : 18.5 Mbps
    Movie name : GORESEWAGE
    Encoded date : UTC 2013-08-02 16:06:04
    Writing application : mkvmerge v6.1.0 ('Old Devil') built on Mar 31 2013 15:21:18
    Writing library : libebml v1.3.0 + libmatroska v1.4.0
    Video #1
    ID : 1
    Format : AVC
    Format/Info : Advanced Video Codec
    Format profile : High@L4.1
    Format settings, CABAC : Yes
    Format settings, ReFrames : 5 frames
    Codec ID : V_MPEG4/ISO/AVC
    Bit rate : 11.0 Mbps
    Width : 1 920 pixels
    Height : 800 pixels
    Display aspect ratio : 2.40:1
    Frame rate mode : Variable
    Original frame rate : 23.976 fps
    Color space : YUV
    Chroma subsampling : 4:2:0
    Bit depth : 8 bits
    Scan type : Progressive
    Bits/(Pixel*Frame) : 0.299
    Title : GORESEWAGE
    Writing library : x264 core 129 r2230 1cffe9f
    Encoding settings : cabac=1 / ref=5 / deblock=1:-3:-3 / analyse=0x3:0x113 / me=tesa / subme=11 / psy=1 / psy_rd=1.00:0.00 / mixed_ref=1 / me_range=24 / chroma_me=1 / trellis=2 / 8x8dct=1 / cqm=0 / deadzone=21,11 / fast_pskip=1 / chroma_qp_offset=-2 / threads=12 / lookahead_threads=2 / sliced_threads=0 / nr=0 / decimate=1 / interlaced=0 / bluray_compat=0 / constrained_intra=0 / bframes=8 / b_pyramid=2 / b_adapt=2 / b_bias=0 / direct=3 / weightb=1 / open_gop=0 / weightp=2 / keyint=240 / keyint_min=23 / scenecut=40 / intra_refresh=0 / rc=2pass / mbtree=0 / bitrate=11000 / ratetol=1.0 / qcomp=0.65 / qpmin=10 / qpmax=69 / qpstep=4 / cplxblur=20.0 / qblur=0.5 / ip_ratio=1.40 / pb_ratio=1.30 / aq=2:0.85
    Language : English
    Default : Yes
    Forced : No
    Audio #2
    ID : 2
    Format : AC-3
    Format/Info : Audio Coding 3
    Mode extension : CM (complete main)
    Format settings, Endianness : Big
    Codec ID : A_AC3
    Duration : 2h 10mn
    Bit rate mode : Constant
    Bit rate : 640 Kbps
    Channel(s) : 6 channels
    Channel positions : Front: L C R, Side: L R, LFE
    Sampling rate : 48.0 KHz
    Bit depth : 16 bits
    Compression mode : Lossy
    Stream size : 596 MiB (3%)
    Title : Профессиональный (дублированный)
    Language : Russian
    Default : Yes
    Forced : No
    Audio #3
    ID : 3
    Format : DTS
    Format/Info : Digital Theater Systems
    Codec ID : A_DTS
    Duration : 2h 10mn
    Bit rate mode : Constant
    Bit rate : 1 510 Kbps
    Channel(s) : 6 channels
    Channel positions : Front: L C R, Side: L R, LFE
    Sampling rate : 48.0 KHz
    Bit depth : 24 bits
    Compression mode : Lossy
    Stream size : 1.37 GiB (8%)
    Title : Авторский (одноголосый закадровый) Андрей Гаврилов
    Language : Russian
    Default : No
    Forced : No
    Audio #4
    ID : 4
    Format : DTS
    Format/Info : Digital Theater Systems
    Codec ID : A_DTS
    Duration : 2h 10mn
    Bit rate mode : Constant
    Bit rate : 1 510 Kbps
    Channel(s) : 6 channels
    Channel positions : Front: L C R, Side: L R, LFE
    Sampling rate : 48.0 KHz
    Bit depth : 24 bits
    Compression mode : Lossy
    Stream size : 1.37 GiB (8%)
    Title : Авторский (одноголосый закадровый) Юрий Немахов
    Language : Russian
    Default : No
    Forced : No
    Audio #5
    ID : 5
    Format : DTS
    Format/Info : Digital Theater Systems
    Codec ID : A_DTS
    Duration : 2h 10mn
    Bit rate mode : Constant
    Bit rate : 1 510 Kbps
    Channel(s) : 6 channels
    Channel positions : Front: L C R, Side: L R, LFE
    Sampling rate : 48.0 KHz
    Bit depth : 16 bits
    Compression mode : Lossy
    Stream size : 1.37 GiB (8%)
    Title : Одноголосый закадровый Вячеслав zamez
    Language : Russian
    Default : No
    Forced : No
    Audio #6
    ID : 6
    Format : AC-3
    Format/Info : Audio Coding 3
    Mode extension : CM (complete main)
    Format settings, Endianness : Big
    Codec ID : A_AC3
    Duration : 2h 10mn
    Bit rate mode : Constant
    Bit rate : 640 Kbps
    Channel(s) : 6 channels
    Channel positions : Front: L C R, Side: L R, LFE
    Sampling rate : 48.0 KHz
    Bit depth : 16 bits
    Compression mode : Lossy
    Stream size : 596 MiB (3%)
    Title : Профессиональный (дублированный)
    Language : Ukrainian
    Default : No
    Forced : No
    Audio #7
    ID : 7
    Format : DTS
    Format/Info : Digital Theater Systems
    Codec ID : A_DTS
    Duration : 2h 10mn
    Bit rate mode : Constant
    Bit rate : 1 510 Kbps
    Channel(s) : 6 channels
    Channel positions : Front: L C R, Side: L R, LFE
    Sampling rate : 48.0 KHz
    Bit depth : 24 bits
    Compression mode : Lossy
    Stream size : 1.37 GiB (8%)
    Title : Оригинал
    Language : English
    Default : No
    Forced : No
    Audio #8
    ID : 8
    Format : AC-3
    Format/Info : Audio Coding 3
    Format profile : Dolby Digital
    Mode extension : CM (complete main)
    Format settings, Endianness : Big
    Codec ID : A_AC3
    Duration : 2h 10mn
    Bit rate mode : Constant
    Bit rate : 192 Kbps
    Channel(s) : 2 channels
    Channel positions : Front: L R
    Sampling rate : 48.0 KHz
    Bit depth : 16 bits
    Compression mode : Lossy
    Stream size : 179 MiB (1%)
    Title : Комментарии
    Language : English
    Default : No
    Forced : No
    Text #9
    ID : 9
    Format : UTF-8
    Codec ID : S_TEXT/UTF8
    Codec ID/Info : UTF-8 Plain Text
    Title : Forced (captions)
    Language : Russian
    Default : Yes
    Forced : No
    Text #10
    ID : 10
    Format : UTF-8
    Codec ID : S_TEXT/UTF8
    Codec ID/Info : UTF-8 Plain Text
    Title : Full
    Language : Russian
    Default : No
    Forced : No
    Text #11
    ID : 11
    Format : UTF-8
    Codec ID : S_TEXT/UTF8
    Codec ID/Info : UTF-8 Plain Text
    Title : Commentary
    Language : Russian
    Default : No
    Forced : No
    Text #12
    ID : 12
    Format : UTF-8
    Codec ID : S_TEXT/UTF8
    Codec ID/Info : UTF-8 Plain Text
    Title : Forced (captions)
    Language : Ukrainian
    Default : No
    Forced : No
    Text #13
    ID : 13
    Format : UTF-8
    Codec ID : S_TEXT/UTF8
    Codec ID/Info : UTF-8 Plain Text
    Title : Full
    Language : English
    Default : No
    Forced : No
    Menu
    00:00:00.000 : en:00:00:00.000
    00:08:45.775 : en:00:08:45.775
    00:18:00.705 : en:00:18:00.705
    00:24:13.243 : en:00:24:13.243
    00:31:19.878 : en:00:31:19.878
    00:39:54.267 : en:00:39:54.267
    00:45:38.819 : en:00:45:38.819
    00:49:45.607 : en:00:49:45.607
    00:58:12.280 : en:00:58:12.280
    01:05:40.186 : en:01:05:40.186
    01:15:06.960 : en:01:15:06.960
    01:21:05.110 : en:01:21:05.110
    01:27:23.112 : en:01:27:23.112
    01:37:45.776 : en:01:37:45.776
    01:43:17.649 : en:01:43:17.649
    01:51:29.682 : en:01:51:29.682

    Полноразмерный постер

    Скачать .torrent

    Скачать торрент-файл бесплатно и на максимальной скорости!

    Как скачивать? · Что такое торрент? · Рейтинг и ограничения

    !ВНИМАНИЕ!
    Сайт не распространяет и не хранит электронные версии произведений, а занимается лишь лишь предоставлением доступа к создаваемому пользователями каталогу ссылок на торрент-файлы, которые содержат только списки хеш-сумм, убедительная просьба с жалобами обращаться напрямую к пользователю. Файлы для обмена на трекере предоставлены пользователями сайта, и администрация не несёт ответственности за их содержание. Просьба не заливать файлы, защищенные авторскими правами, а также файлы нелегального содержания!

    [Профиль] [ЛС]
    Показать сообщения:    
    Ответить на тему

    Текущее время: Сегодня, в 04:06

    Часовой пояс: GMT + 2



    Вы не можете начинать темы
    Вы не можете отвечать на сообщения
    Вы не можете редактировать свои сообщения
    Вы не можете удалять свои сообщения
    Вы не можете голосовать в опросах
    Вы не можете прикреплять файлы к сообщениям
    Вы не можете скачивать файлы