BitTorrentTracker PerecTracker.org
BitTorrentTracker PerecTracker.org
    
Регистрация  ·  Вход
 
 · 
Забыли пароль?

  • Уж кто бы говорил / Посмотрите кто говорит / Смотрите кто заговорил / Look Who's Talking (Эми Хекерлинг / Amy Heckerling) [1989, США, мелодрама, комедия, WEB-DL 720p] DVO (R5) + MVO (СТС) + AVO (Гаврилов, Живов) + Original (eng) + Sub (rus, eng)

    Ответить на тему
     
    Автор Сообщение

    Columb

    Создавать темы 05-Авг-2013 11:40

           

    [Цитировать]

    Уж кто бы говорил / Посмотрите кто говорит / Смотрите кто заговорил / Look Who's Talking«Взрослым лучше не знать о чем думают дети»-Год выхода: 1989
    Жанр: мелодрама, комедия
    Страна: США
    Продолжительность: 01:35:51
    Перевод 1: Профессиональный (двухголосый, закадровый) |R5|
    Перевод 2: Профессиональный (многоголосый, закадровый) |телеканал СТС|
    Перевод 3: Авторский (одноголосый, закадровый) |Андрей Гаврилов|
    Перевод 4: Авторский (одноголосый, закадровый) |Юрий Живов|
    Оригинальная аудиодорожка: английская
    Субтитры: русские, английские |*srt|-Режиссер: Эми Хекерлинг / Amy Heckerling-В ролях: Джон Траволта, Кёрсти Элли, Олимпия Дукакис, Джордж Сигал, Эйб Вигода, Брюс Уиллис, Твинк Каплан, Джейсон Шаллер, Джаред Уотерхаус, Джейкоб Хайнс-Описание: Молодая, но уже не юная Молли — будущая мать-одиночка. По дороге в роддом она знакомится с сердобольным таксистом Джеймсом. И с этого момента Джеймс становится другом молодой мамы и сиделкой для малыша Мики. Казалось бы, все просто. Но дело в том, что у Мики еще до рождения прорезался внутренний голос. То есть малыш все видит, все понимает, просто еще не умеет говорить вслух. Но сам с собой он разговаривает голосом Брюса Уиллиса.--Сэмпл: http://multi-up.com/890270-Качество: WEB-DL 720p [ by dsk71]
    Формат: MKV
    Видео: 1280x718 at 23,976 fps, x.264@L3.1, ~3976 kbps avg
    Аудио : 48 kHz, AC3 Dolby Digital, 3/2 (L,C,R,l,r) + LFE ch, ~448.00 kbps avg |DVO, R5|
    Аудио 2: 48 kHz, AC3 Dolby Digital, 2/0 (L,R) ch, ~192.00 kbps avg |MVO, СТС|
    Аудио 3: 48 kHz, AC3 Dolby Digital, 3/2 (L,C,R,l,r) + LFE ch, ~384.00 kbps avg |Живов|
    Аудио 4: 48 kHz, AC3 Dolby Digital, 3/2 (L,C,R,l,r) + LFE ch, ~384.00 kbps avg |Гаврилов|
    Аудио 5: 48 kHz, AC3 Dolby Digital, 3/2 (L,C,R,l,r) + LFE ch, ~384.00 kbps avg |ENG|

    MediaInfo

    Формат                                   : Matroska
    Версия формата                           : Version 2
    Размер файла                             : 3,94 Гбайт
    Продолжительность                        : 1 ч. 35 м.
    Общий поток                              : 5885 Кбит/сек
    Дата кодирования                         : UTC 2013-03-21 11:16:11
    Программа кодирования                    : mkvmerge v3.4.0 ('Rapunzel') сборка от May 15 2010 09:38:20
    Библиотека кодирования                   : libebml v0.8.0 + libmatroska v0.9.0
    Видео
    Идентификатор                            : 1
    Формат                                   : AVC
    Формат/Информация                        : Advanced Video Codec
    Профиль формата                          : High@L3.1
    Параметр CABAC формата                   : Нет
    Параметр ReFrames формата                : 2 кадра
    Идентификатор кодека                     : V_MPEG4/ISO/AVC
    Продолжительность                        : 1 ч. 35 м.
    Битрейт                                  : 3976 Кбит/сек
    Ширина                                   : 1280 пикселей
    Высота                                   : 718 пикселей
    Соотношение сторон                       : 16:9
    Режим частоты кадров                     : Постоянный
    Частота кадров                           : 23,976 кадра/сек
    Цветовое пространство                    : YUV
    Субдискретизация насыщенности            : 4:2:0
    Битовая глубина                          : 8 бит
    Тип развёртки                            : Прогрессивная
    Бит/(Пиксели*Кадры)                      : 0.180
    Размер потока                            : 2,66 Гбайт (68%)
    Язык                                     : English
    Default                                  : Нет
    Forced                                   : Нет
    Основные цвета                           : BT.709
    Характеристики трансфера                 : BT.709
    Коэффициенты матрицы                     : BT.709
    Аудио #1
    Идентификатор                            : 2
    Формат                                   : AC-3
    Формат/Информация                        : Audio Coding 3
    Расширение режима                        : CM (complete main)
    Параметр Endianness формата              : Big
    Идентификатор кодека                     : A_AC3
    Продолжительность                        : 1 ч. 35 м.
    Вид битрейта                             : Постоянный
    Битрейт                                  : 448 Кбит/сек
    Каналы                                   : 6 каналов
    Расположение каналов                     : Front: L C R, Side: L R, LFE
    Частота                                  : 48,0 КГц
    Битовая глубина                          : 16 бит
    Метод сжатия                             : С потерями
    Размер потока                            : 307 Мбайт (8%)
    Заголовок                                : R5
    Язык                                     : Russian
    Default                                  : Да
    Forced                                   : Нет
    Аудио #2
    Идентификатор                            : 3
    Формат                                   : AC-3
    Формат/Информация                        : Audio Coding 3
    Расширение режима                        : CM (complete main)
    Параметр Endianness формата              : Big
    Идентификатор кодека                     : A_AC3
    Продолжительность                        : 1 ч. 35 м.
    Вид битрейта                             : Постоянный
    Битрейт                                  : 192 Кбит/сек
    Каналы                                   : 2 канала
    Расположение каналов                     : Front: L R
    Частота                                  : 48,0 КГц
    Битовая глубина                          : 16 бит
    Метод сжатия                             : С потерями
    Размер потока                            : 132 Мбайт (3%)
    Заголовок                                : STS
    Язык                                     : Russian
    Default                                  : Нет
    Forced                                   : Нет
    Аудио #3
    Идентификатор                            : 4
    Формат                                   : AC-3
    Формат/Информация                        : Audio Coding 3
    Расширение режима                        : CM (complete main)
    Параметр Endianness формата              : Big
    Идентификатор кодека                     : A_AC3
    Продолжительность                        : 1 ч. 35 м.
    Вид битрейта                             : Постоянный
    Битрейт                                  : 384 Кбит/сек
    Каналы                                   : 6 каналов
    Расположение каналов                     : Front: L C R, Side: L R, LFE
    Частота                                  : 48,0 КГц
    Битовая глубина                          : 16 бит
    Метод сжатия                             : С потерями
    Размер потока                            : 263 Мбайт (7%)
    Заголовок                                : Jivov
    Язык                                     : Russian
    Default                                  : Нет
    Forced                                   : Нет
    Аудио #4
    Идентификатор                            : 5
    Формат                                   : AC-3
    Формат/Информация                        : Audio Coding 3
    Расширение режима                        : CM (complete main)
    Параметр Endianness формата              : Big
    Идентификатор кодека                     : A_AC3
    Продолжительность                        : 1 ч. 35 м.
    Вид битрейта                             : Постоянный
    Битрейт                                  : 384 Кбит/сек
    Каналы                                   : 6 каналов
    Расположение каналов                     : Front: L C R, Side: L R, LFE
    Частота                                  : 48,0 КГц
    Битовая глубина                          : 16 бит
    Метод сжатия                             : С потерями
    Размер потока                            : 263 Мбайт (7%)
    Заголовок                                : Gavrilov
    Язык                                     : Russian
    Default                                  : Нет
    Forced                                   : Нет
    Аудио #5
    Идентификатор                            : 6
    Формат                                   : AC-3
    Формат/Информация                        : Audio Coding 3
    Расширение режима                        : CM (complete main)
    Параметр Endianness формата              : Big
    Идентификатор кодека                     : A_AC3
    Продолжительность                        : 1 ч. 35 м.
    Вид битрейта                             : Постоянный
    Битрейт                                  : 384 Кбит/сек
    Каналы                                   : 6 каналов
    Расположение каналов                     : Front: L C R, Side: L R, LFE
    Частота                                  : 48,0 КГц
    Битовая глубина                          : 16 бит
    Метод сжатия                             : С потерями
    Размер потока                            : 263 Мбайт (7%)
    Заголовок                                : Eng
    Язык                                     : English
    Default                                  : Нет
    Forced                                   : Нет
    Текст #1
    Идентификатор                            : 7
    Формат                                   : UTF-8
    Идентификатор кодека                     : S_TEXT/UTF8
    Идентификатор кодека/Информация          : UTF-8 Plain Text
    Язык                                     : Russian
    Default                                  : Да
    Forced                                   : Нет
    Текст #2
    Идентификатор                            : 8
    Формат                                   : UTF-8
    Идентификатор кодека                     : S_TEXT/UTF8
    Идентификатор кодека/Информация          : UTF-8 Plain Text
    Заголовок                                : CC
    Язык                                     : English
    Default                                  : Нет
    Forced                                   : Нет
    Меню
    00:00:00.000                             : en:Start
    00:04:56.000                             : en:Stomach Flu
    00:06:21.000                             : en:"You Need Hands"
    00:07:16.000                             : en:Molie's family
    00:08:18.000                             : en:Unplanned pregnancy
    00:10:50.000                             : en:Inseminated
    00:11:52.000                             : en:"And She Was"
    00:13:25.000                             : en:"Beth?"
    00:16:17.000                             : en:Melissa
    00:18:29.000                             : en:In labor
    00:21:34.000                             : en:At St. Jerome's
    00:25:47.000                             : en:Nursery thoughts
    00:26:55.000                             : en:Slight swelling
    00:30:54.000                             : en:Cold and wet
    00:35:24.000                             : en:Father search begins
    00:40:51.000                             : en:Going for a ride
    00:43:52.000                             : en:"Honey, I'm home."
    00:46:06.000                             : en:"When I grow up."
    00:47:09.000                             : en:Something in common
    00:50:45.000                             : en:A date with Harry
    00:51:59.000                             : en:"Walking on Sunshine"
    00:55:47.000                             : en:"Staying Alive"
    00:57:35.000                             : en:"Town without pity"
    01:00:40.000                             : en:Grandpa's new place
    01:03:05.000                             : en:Flying Lessons
    01:04:12.000                             : en:"Daddy's home"
    01:08:10.000                             : en:With Albert
    01:10:59.000                             : en:The kid's father
    01:15:23.000                             : en:Fatherly advice
    01:17:41.000                             : en:Visiting Daddy
    01:21:17.000                             : en:"Do you love James?"
    01:22:23.000                             : en:Problem with Grandpa
    01:25:36.000                             : en:On the loose
    01:27:27.000                             : en:In pursuit
    01:30:48.000                             : en:End Credits

    Скриншоты

    Скачать .torrent

    Скачать торрент-файл бесплатно и на максимальной скорости!

    Как скачивать? · Что такое торрент? · Рейтинг и ограничения

    !ВНИМАНИЕ!
    Сайт не распространяет и не хранит электронные версии произведений, а занимается лишь лишь предоставлением доступа к создаваемому пользователями каталогу ссылок на торрент-файлы, которые содержат только списки хеш-сумм, убедительная просьба с жалобами обращаться напрямую к пользователю. Файлы для обмена на трекере предоставлены пользователями сайта, и администрация не несёт ответственности за их содержание. Просьба не заливать файлы, защищенные авторскими правами, а также файлы нелегального содержания!

    [Профиль] [ЛС]
    Показать сообщения:    
    Ответить на тему

    Текущее время: Сегодня, в 10:29

    Часовой пояс: GMT + 2



    Вы не можете начинать темы
    Вы не можете отвечать на сообщения
    Вы не можете редактировать свои сообщения
    Вы не можете удалять свои сообщения
    Вы не можете голосовать в опросах
    Вы не можете прикреплять файлы к сообщениям
    Вы не можете скачивать файлы