BitTorrentTracker PerecTracker.org
BitTorrentTracker PerecTracker.org
    
Регистрация  ·  Вход
 
 · 
Забыли пароль?

  • Мастер / Техперсонал / Roadie (Алан Рудольф / Alan Rudolph) [1980, США, комедия, TVRip] DVO (НТВ+)

    Ответить на тему
     
    Автор Сообщение

    Columb

    Создавать темы 05-Авг-2013 08:18

           

    [Цитировать]

    Мастер / Техперсонал / Roadie
    Страна: США
    Жанр: комедия
    Год выпуска: 1980
    Продолжительность: 01:40:59
    Перевод: Профессиональный (двухголосый закадровый) НТВ+
    Cубтитры: нет
    Режиссер: Алан Рудольф / Alan Rudolph
    В ролях:
    Мит Лоаф, Кэки Хантер, Арт Карни, Гейлард Сартейн, Дон Корнелиус, Ронда Бейтс, Джо Спано, Ричард Мэрион, Сонни Карл Дэвис, Джинджер Вэрн, Элис Купер и другие
    Описание:
    Молодой водитель грузовика становится техником разъездного Рок-Шоу...
    Доп. информация:
    сценарий - Биг Бой Медлин, Майкл Вентура, Залман Кинг
    продюсеры - Залман Кинг, Кэролин Пфайфер, Джон Поммер
    оператор - Дэвид Майерс
    композиторы - Стив Кроппер, Крэйг Хаксли, Хэнк Уильямс мл.
    художники - Пол Питерс, Ричард Фридман
    монтаж - Том Уоллс
    премьера (мир) - 13 июня 1980
    Сэмпл: http://www.sendspace.com/file/j4bnsw
    Качество видео: TVRip
    Формат видео: MPEG-PS
    Видео: MPEG2 Video, 720x576 (4:3) 25.00fps, ~6144, 0.593 bit/pixel
    Аудио: MPEG Audio, 48000Hz, 2/0 (L,R) ch, 192 Kbps

    MediaInfo

    Полное имя : G:\DVD\Мастер (1980)\Roadie.mpg
    Формат : MPEG-PS
    Размер файла : 4,53 Гбайт
    Продолжительность : 1 ч. 41 м.
    Общий поток : 6422 Кбит/сек
    Видео
    Идентификатор : 224 (0xE0)
    Формат : MPEG Video
    Версия формата : Version 2
    Профиль формата : Main@Main
    Параметр BVOP формата : Да
    Параметр матрицы формата : По умолчанию
    Продолжительность : 1 ч. 41 м.
    Вид битрейта : Переменный
    Битрейт : 6144 Кбит/сек
    Ширина : 720 пикселей
    Высота : 576 пикселей
    Соотношение сторон : 4:3
    Частота кадров : 25,000 кадров/сек
    Стандарт вещания : PAL
    Цветовое пространство : YUV
    Субдискретизация насыщенности : 4:2:0
    Битовая глубина : 8 бит
    Тип развёртки : Прогрессивная
    Метод сжатия : С потерями
    Бит/(Пиксели*Кадры) : 0.593
    Размер потока : 4,31 Гбайт (95%)
    Аудио
    Идентификатор : 192 (0xC0)
    Формат : MPEG Audio
    Версия формата : Version 1
    Профиль формата : Layer 2
    Продолжительность : 1 ч. 41 м.
    Вид битрейта : Постоянный
    Битрейт : 192 Кбит/сек
    Каналы : 2 канала
    Частота : 48,0 КГц
    Метод сжатия : С потерями
    Размер потока : 139 Мбайт (3%)

    Скриншот c названием фильма

    Скриншоты

    Скачать .torrent

    Скачать торрент-файл бесплатно и на максимальной скорости!

    Как скачивать? · Что такое торрент? · Рейтинг и ограничения

    !ВНИМАНИЕ!
    Сайт не распространяет и не хранит электронные версии произведений, а занимается лишь лишь предоставлением доступа к создаваемому пользователями каталогу ссылок на торрент-файлы, которые содержат только списки хеш-сумм, убедительная просьба с жалобами обращаться напрямую к пользователю. Файлы для обмена на трекере предоставлены пользователями сайта, и администрация не несёт ответственности за их содержание. Просьба не заливать файлы, защищенные авторскими правами, а также файлы нелегального содержания!

    [Профиль] [ЛС]
    Показать сообщения:    
    Ответить на тему

    Текущее время: Сегодня, в 16:35

    Часовой пояс: GMT + 2



    Вы не можете начинать темы
    Вы не можете отвечать на сообщения
    Вы не можете редактировать свои сообщения
    Вы не можете удалять свои сообщения
    Вы не можете голосовать в опросах
    Вы не можете прикреплять файлы к сообщениям
    Вы не можете скачивать файлы