Register  ·  Log in
Forgot password?

  • Зеркала (Марина Мигунова) [2013, драма, биография, история, WEB-DLRip]

    Reply to topic
    Author Message


    Post 09-Dec-2015 00:14



    Жанр: драма, биография, история
    Год выпуска: 2013
    Продолжительность: 02:17:29
    Режиссёр: Марина Мигунова
    В ролях: Виктория Исакова, Роман Полянский, Виктор Добронравов, Александра Мошкова, Евгений Князев, Игорь Письменный,Владимир Сычёв
    Описание: Лето. Крым. Последние годы перед революцией. Молодая Марина Цветаева встречает гимназиста Сергея Эфрона. И только она знает, что эти отношения оба пронесут через всю свою жизнь. Действие фильма происходит в разных странах и городах — в Москве, Париже, Праге и Коктебеле. На фоне эпохальных событий в мире развивается чувственная история отношений мужчины и женщины. «Зеркала» — это отражения великой Цветаевой в ее возлюбленных — муже и любовниках.
    Качество видео: WEB-DLRip
    Формат видео: AVI
    Видео: 720x384 (1.85:1), 24.000 fps, XviD 1.2.1 ~1130 kbps avg, 0.170 bit/pixel
    Аудио: 48 kHz, AC-3, 6 ch, ~384 kbps


    Complete name : F:\Download\3epkala..avi
    Format : AVI
    Format/Info : Audio Video Interleave
    File size : 1.46 GiB
    Duration : 2h 17mn
    Overall bit rate : 1 523 Kbps
    Writing application : VirtualDubMod | || (build 2550/release)
    Writing library : VirtualDubMod build 2550/release
    ID : 0
    Format : MPEG-4 Visual
    Format profile : Advanced Simple@L5
    Format settings, BVOP : 2
    Format settings, QPel : No
    Format settings, GMC : No warppoints
    Format settings, Matrix : Default (MPEG)
    Codec ID : XVID
    Codec ID/Hint : XviD
    Duration : 2h 17mn
    Bit rate : 1 130 Kbps
    Width : 720 pixels
    Height : 384 pixels
    Display aspect ratio : 1.85:1
    Frame rate : 24.000 fps
    Color space : YUV
    Chroma subsampling : 4:2:0
    Bit depth : 8 bits
    Scan type : Progressive
    Compression mode : Lossy
    Bits/(Pixel*Frame) : 0.170
    Stream size : 1.08 GiB (74%)
    Writing library : XviD 1.2.1 (UTC 2008-12-04)
    ID : 1
    Format : AC-3
    Format/Info : Audio Coding 3
    Mode extension : CM (complete main)
    Format settings, Endianness : Big
    Codec ID : 2000
    Duration : 2h 17mn
    Bit rate mode : Constant
    Bit rate : 384 Kbps
    Channel(s) : 6 channels
    Channel positions : Front: L C R, Side: L R, LFE
    Sampling rate : 48.0 KHz
    Bit depth : 16 bits
    Compression mode : Lossy
    Stream size : 378 MiB (25%)
    Alignment : Split accross interleaves
    Interleave, duration : 42 ms (1.00 video frame)
    Interleave, preload duration : 500 ms

    Скриншот c названием фильма


    Download .torrent

    Download free and at maximum speed!

    How to Download? · What is a torrent? · Ratings and Limitations

    The site does not extend and does not store electronic(digital) versions of products, and only gives access to a reference catalogue created by users on torrent-files which contain only lists of the hash-sums, the earnest entreaty, with complaints(abuse) to access directly to the user. Files for an exchange on tracker are given by users of a site, and the administration does not bear the responsibility for their maintenance. The request to not fill in the files protected by copyrights, and also files of the illegal maintenance!

    [Profile] [PM]
    Display posts from previous:    
    Reply to topic

    The time now is: Today 17:09

    All times are GMT + 3 Hours

    You cannot post new topics in this forum
    You cannot reply to topics in this forum
    You cannot edit your posts in this forum
    You cannot delete your posts in this forum
    You cannot vote in polls in this forum
    You cannot attach files in this forum
    You cannot download files in this forum