Register  ·  Log in
Forgot password?

  • Золото (Андрей Мармонтов) [2012, драма, DVDRip]

    Reply to topic
    Author Message


    Post 09-Dec-2015 00:14



    Золото-«Проиграл - плати»-Жанр: драма
    Год выпуска: 2012
    Продолжительность: 01:50:11-Режиссёр: Андрей Мармонтов
    В ролях: Сергей Безруков, Ирина Скобцева, Андрей Мерзликин, Михаил Пореченков, Анна Герман, Максим Шибаев, Любовь Куликова, Владимир Кабалин, Алексей Шемес, Дарья Михайлова.-Описание: Судебный пристав предъявляет семье Брагиных иск по карточным долгам пропавшего брата. Для расчётов — два месяца. Или Гордея, как брата должника ждёт арест и тюрьма. Выход один — бросить всё и бежать. Всех спасает золотая жила. Прииск быстро приносит богатство: теперь Гордей — золотопромышленник!-КиноПоиск | IMDB | Семпл-Качество видео: DVDRip
    Формат видео: AVI
    Видео: 704x304 (2.32:1), 25 fps, XviD build 73 ~1437 kbps avg, 0.27 bit/pixel
    Аудио: 48 kHz, AC3 Dolby Digital, 3/2 (L,C,R,l,r) + LFE ch, ~448 kbps


    Complete name : E:\Золото.(Logan1995).avi
    Format : AVI
    Format/Info : Audio Video Interleave
    File size : 1,46 Гбайт
    Duration : 1 ч. 50 м.
    Overall bit rate : 1895 Кбит/сек
    Writing application : VirtualDubMod | || (build 2550/release)
    Writing library : VirtualDubMod build 2550/release
    ID : 0
    Format : MPEG-4 Visual
    Format profile : Advanced Simple@L5
    Format settings, BVOP : 2
    Format settings, QPel : Нет
    Format settings, GMC : Без точки перехода
    Format settings, Matrix : Выборочная
    Codec ID : XVID
    Codec ID/Hint : XviD
    Duration : 1 ч. 50 м.
    Bit rate : 1438 Кбит/сек
    Width : 704 пикс.
    Height : 304 пикс.
    Display aspect ratio : 2,35:1
    Frame rate : 25,000 кадр/сек
    Color space : YUV
    Chroma subsampling : 4:2:0
    Bit depth : 8 бит
    Scan type : Прогрессивная
    Compression mode : С потерями
    Bits/(Pixel*Frame) : 0.269
    Stream size : 1,11 Гбайт (76%)
    Writing library : XviD 73
    ID : 1
    Format : AC-3
    Format/Info : Audio Coding 3
    Mode extension : CM (complete main)
    Codec ID : 2000
    Duration : 1 ч. 50 м.
    Bit rate mode : Постоянный
    Bit rate : 448 Кбит/сек
    Channel(s) : 6 канала(ов)
    Channel positions : Front: L C R, Side: L R, LFE
    Sampling rate : 48,0 КГц
    Bit depth : 16 бит
    Compression mode : С потерями
    Stream size : 353 Мбайт (24%)
    Alignment : Разделение по промежуткам
    Interleave, duration : 40 мс. (1,00 видеокадр)
    Interleave, preload duration : 500 ms

    Скриншот c названием фильма


    Download .torrent

    Download free and at maximum speed!

    How to Download? · What is a torrent? · Ratings and Limitations

    The site does not extend and does not store electronic(digital) versions of products, and only gives access to a reference catalogue created by users on torrent-files which contain only lists of the hash-sums, the earnest entreaty, with complaints(abuse) to access directly to the user. Files for an exchange on tracker are given by users of a site, and the administration does not bear the responsibility for their maintenance. The request to not fill in the files protected by copyrights, and also files of the illegal maintenance!

    [Profile] [PM]
    Display posts from previous:    
    Reply to topic

    The time now is: Today 07:56

    All times are GMT + 3 Hours

    You cannot post new topics in this forum
    You cannot reply to topics in this forum
    You cannot edit your posts in this forum
    You cannot delete your posts in this forum
    You cannot vote in polls in this forum
    You cannot attach files in this forum
    You cannot download files in this forum