BitTorrentTracker PerecTracker.org
BitTorrentTracker PerecTracker.org
    
Регистрация  ·  Вход
 
 · 
Забыли пароль?

  • Бой с тенью 2: Реванш (Антон Мегердичев) [2007, Боевик, драма, криминал, DVDRip]

    Ответить на тему
     
    Автор Сообщение

    rechyn

    Создавать темы 08-Дек-2015 23:14

           

    [Цитировать]

    -Бой с тенью 2: Реванш
    «Один удар. Одна жизнь. Одна любовь»
    -Год выпуска: 2007
    Выпущено: Россия / Централ Партнершип
    Жанр: боевик, драма, криминал
    Продолжительность: 02:10:43-Режиссёр:
    Антон Мегердичев-В ролях:
    Денис Никифоров (Артем Колчин), Андрей Панин (Вагит Валиев), Елена Панова (Вика), Михаил Горевой (Майкл Базз), Олег Васильков (Батов), Павел Деревянко (Тимоха), Екатерина Маликова (Джулия), Олег Чудницов (Наркодилер Мустафа), Альваро Орландо (Цезарь), Дмитрий Шевченко (Нечаев)-Описание:
    Артем Колчин снова на ринге. Финальный бой за чемпионский титул он проведет в Америке. Но перед финалом ему предстоит бой с мексиканским боксером, который также рвется к вершине. После тяжелого поединка мексиканец умирает в госпитале. Но неприятности только начинаются.
    Артему сообщают, что он забил на ринге приемного сына мексиканского наркобарона, который вынес суровый приговор: кровь Вики за кровь погибшего сына. На свете есть только один человек, который может помочь Колчину выпутаться из опасной переделки, и он — заклятый враг Артема…-Релиз групп
    | | КиноПоиск | Сэмпл |-Качество: DVDRip [DVD9 R5]
    Формат: AVI
    Видео: 720x304 (2.37:1), 25 fps, XviD build 73 ~1394 kbps avg, 0.26 bit/pixel
    Аудио: 48 kHz, AC3 Dolby Digital, 2/0 (L,R) ch, ~192.00 kbps avg-

    Скриншоты

    MediaInfo

    General
    Complete name                            : D:\Boi_s_ten`u_2_Revansh_2007_DVDRip_by_Dalemake.avi
    Format                                   : AVI
    Format/Info                              : Audio Video Interleave
    File size                                : 1.46 GiB
    Duration                                 : 2h 10mn
    Overall bit rate                         : 1 597 Kbps
    Writing application                      : VirtualDubMod 1.5.10.3 | www.virtualdub-fr.org || (build 2550/release)
    Writing library                          : VirtualDubMod build 2550/release
    Video
    ID                                       : 0
    Format                                   : MPEG-4 Visual
    Format profile                           : Advanced Simple@L5
    Format settings, BVOP                    : 1
    Format settings, QPel                    : No
    Format settings, GMC                     : No warppoints
    Format settings, Matrix                  : Custom
    Codec ID                                 : XVID
    Codec ID/Hint                            : XviD
    Duration                                 : 2h 10mn
    Bit rate                                 : 1 395 Kbps
    Width                                    : 720 pixels
    Height                                   : 304 pixels
    Display aspect ratio                     : 2.35:1
    Frame rate                               : 25.000 fps
    Color space                              : YUV
    Chroma subsampling                       : 4:2:0
    Bit depth                                : 8 bits
    Scan type                                : Progressive
    Compression mode                         : Lossy
    Bits/(Pixel*Frame)                       : 0.255
    Stream size                              : 1.27 GiB (87%)
    Writing library                          : XviD 73
    Audio
    ID                                       : 1
    Format                                   : AC-3
    Format/Info                              : Audio Coding 3
    Mode extension                           : CM (complete main)
    Format settings, Endianness              : Big
    Codec ID                                 : 2000
    Duration                                 : 2h 10mn
    Bit rate mode                            : Constant
    Bit rate                                 : 192 Kbps
    Channel(s)                               : 2 channels
    Channel positions                        : Front: L R
    Sampling rate                            : 48.0 KHz
    Bit depth                                : 16 bits
    Compression mode                         : Lossy
    Stream size                              : 180 MiB (12%)
    Alignment                                : Split accross interleaves
    Interleave, duration                     : 40 ms (1.00 video frame)
    Interleave, preload duration             : 500 ms
    -
    Скачать .torrent

    Скачать торрент-файл бесплатно и на максимальной скорости!

    Как скачивать? · Что такое торрент? · Рейтинг и ограничения

    !ВНИМАНИЕ!
    Сайт не распространяет и не хранит электронные версии произведений, а занимается лишь лишь предоставлением доступа к создаваемому пользователями каталогу ссылок на торрент-файлы, которые содержат только списки хеш-сумм, убедительная просьба с жалобами обращаться напрямую к пользователю. Файлы для обмена на трекере предоставлены пользователями сайта, и администрация не несёт ответственности за их содержание. Просьба не заливать файлы, защищенные авторскими правами, а также файлы нелегального содержания!


    _________________
    [Профиль] [ЛС]
    Показать сообщения:    
    Ответить на тему

    Текущее время: Сегодня, в 16:29

    Часовой пояс: GMT + 2



    Вы не можете начинать темы
    Вы не можете отвечать на сообщения
    Вы не можете редактировать свои сообщения
    Вы не можете удалять свои сообщения
    Вы не можете голосовать в опросах
    Вы не можете прикреплять файлы к сообщениям
    Вы не можете скачивать файлы