BitTorrentTracker PerecTracker.org
BitTorrentTracker PerecTracker.org
    
Регистрация  ·  Вход
 
 · 
Забыли пароль?

  • Тариф на спасение (Георгий Солдатов, Николай Кузьмин) [2012, Мелодрама, HDTVRip]

    Ответить на тему
     
    Автор Сообщение

    rechyn

    Создавать темы 08-Дек-2015 23:14

           

    [Цитировать]

    Тариф на спасение
    Год выпуска: 2012
    Производство: Россия, Высшие курсы кино и телевидения ВГИК, Мастерская Юрия Кара
    Жанр: Мелодрама
    Продолжительность: ~00:58:04
    Субтитры: нет
    Режиссёр: Георгий Солдатов, Николай Кузьмин (VI)
    В ролях: Дмитрий Воронин, Юлия Латышева, Сергей Баумцвейгер, Петр Ариничев, Олег Чудницов, Игорь Свиргун, Александр Пятков, Евгений Неделин, Александр Синельщиков
    Описание: Молодой парень, не обремененный моральными принципами, попадает на стажировку в спасательный отряд, чтобы написать разоблачительную статью для газеты. Он думает, что весело проведет здесь время, пока не попадает на первый вызов...


    Качество видео: HDTVRip
    Формат видео: AVI
    Видео: 720x400 (1.80:1), 25 fps, XviD build 50 ~1647 kbps avg, 0.23 bit/pixel
    Аудио: 48 kHz, MPEG Layer 3, 2 ch, ~128.00 kbps avg
    Сторонней рекламы нет!

    MediaInfo

    ОбщееПолное имя : F:\Тариф на спасение HDTVRip_XviD_by_Серый1779.aviФормат : AVIФормат/Информация : Audio Video InterleaveРазмер файла : 742 МбайтПродолжительность : 58 м.Общий поток : 1785 Кбит/секПрограмма кодирования : VirtualDubMod 1.5.10.3 | www.virtualdub-fr.org || (build 2550/release)Библиотека кодирования : VirtualDubMod build 2550/release
    ВидеоИдентификатор : 0Формат : MPEG-4 VisualПрофиль формата : Advanced Simple@L5Параметр BVOP формата : 1Параметр QPel формата : НетПараметр GMC формата : Без точки переходаПараметр матрицы формата : Default (MPEG)Идентификатор кодека : XVIDИдентификатор кодека/Подсказка : XviDПродолжительность : 58 м.Битрейт : 1648 Кбит/секШирина : 720 пикс.Высота : 400 пикс.Соотношение сторон : 16:9Частота кадров : 25,000 кадр/секЦветовое пространство : YUVПодвыборка цветности : 4:2:0Битовая глубина : 8 битТип развёртки : ПрогрессивнаяМетод сжатия : С потерямиБит/(Пиксели*Кадры) : 0.229Размер потока : 684 Мбайт (92%)Библиотека кодирования : XviD 1.2.1 (UTC 2008-12-04)
    АудиоИдентификатор : 1Формат : MPEG AudioВерсия формата : Version 1Профиль формата : Layer 3Идентификатор кодека : 55Идентификатор кодека/Подсказка : MP3Продолжительность : 58 м.Вид битрейта : ПостоянныйБитрейт : 128 Кбит/секКаналы : 2 каналаЧастота : 48,0 КГцМетод сжатия : С потерямиРазмер потока : 53,2 Мбайт (7%)Выравнивание : Соединение по промежуткамПродолжительность промежутка : 40 мс. (1,00 видеокадр)Время предзагрузки промежутка : 504 msБиблиотека кодирования : LAME3.99rНастройки программы : -m s -V 4 -q 2 -lowpass 17 -b 128
    Рип:
    Раздача группы:
    Отдельное спасибо nikolspup за предоставление исходника.

    Скриншот c названием фильма

    Скриншоты

    Скачать .torrent

    Скачать торрент-файл бесплатно и на максимальной скорости!

    Как скачивать? · Что такое торрент? · Рейтинг и ограничения

    !ВНИМАНИЕ!
    Сайт не распространяет и не хранит электронные версии произведений, а занимается лишь лишь предоставлением доступа к создаваемому пользователями каталогу ссылок на торрент-файлы, которые содержат только списки хеш-сумм, убедительная просьба с жалобами обращаться напрямую к пользователю. Файлы для обмена на трекере предоставлены пользователями сайта, и администрация не несёт ответственности за их содержание. Просьба не заливать файлы, защищенные авторскими правами, а также файлы нелегального содержания!


    _________________
    [Профиль] [ЛС]
    Показать сообщения:    
    Ответить на тему

    Текущее время: Сегодня, в 02:29

    Часовой пояс: GMT + 2



    Вы не можете начинать темы
    Вы не можете отвечать на сообщения
    Вы не можете редактировать свои сообщения
    Вы не можете удалять свои сообщения
    Вы не можете голосовать в опросах
    Вы не можете прикреплять файлы к сообщениям
    Вы не можете скачивать файлы