BitTorrentTracker PerecTracker.org
BitTorrentTracker PerecTracker.org
    
Регистрация  ·  Вход
 
 · 
Забыли пароль?

  • Бедный, бедный Павел (Виталий Мельников) [2003, исторический, DVB-AVC]

    Ответить на тему
     
    Автор Сообщение

    rechyn

    Создавать темы 08-Дек-2015 23:13

           

    [Цитировать]

    Бедный бедный Павел
    Жанр: исторический
    Год выпуска: 2003
    Продолжительность: 01:41:02
    Режиссёр: Виталий Мельников
    В ролях: Виктор Сухоруков, Олег Янковский, Алексей Барабаш, Оксана Мысина, Анна Молчанова, Юлия Маврина, Игорь Шибанов, Евгений Карпов, Вадим Лобанов, Вера Карпова, Александр Григорьянц, Дмитрий Сутырин, Борис Хвошнянский, Сергей Барковский, Иван Паршин, Андрей Чуманов, Сергей Мурзин
    Описание: Историческая драма по пьесе Д. Мережковского "Павел I".
    Трагическая история Российского императора, Магистра Мальтийского ордена Павла I, павшего жертвой заговора своих приближенных.
    Павел I, который стремился объединить православную и католическую ветви христианства – одна из самых загадочных и ярких фигур российской истории. Костюмно-историческая драма, снятая в интерьерах блистательных дворцов С.-Петербурга.
    Доп. информация: Запись потока *.ts со спутника ABS-2, 75° в.д., ремукс в *.mkv программой VideoReDo.
    Качество видео: DVB-AVC
    Формат видео: MKV
    Видео: Advanced Video Codec, 720(768)x576 (4:3), 25,000 кадров/сек, 3087 Кбит/сек
    Аудио: MPEG Audio, 48,0 КГц, 192 Кбит/сек, 2 канала

    MediaInfo

    Общее
    Уникальный идентификатор : 58484610081960894255316556758934843494 (0x2BFFB9E7364963FE555197BAC6EB7066)
    Полное имя : E:\Torrent\БЕДНЫЙ БЕДНЫЙ ПАВЕЛ (Kultura).mkv
    Формат : Matroska
    Версия формата : Version 2
    Размер файла : 2,36 Гбайт
    Продолжительность : 1 ч. 41 м.
    Общий поток : 3345 Кбит/сек
    Программа кодирования : Lavf52.64.2
    Библиотека кодирования : Lavf52.64.2
    Видео
    Идентификатор : 1
    Формат : AVC
    Формат/Информация : Advanced Video Codec
    Профиль формата : High@L3.0
    Параметр CABAC формата : Да
    Параметр ReFrames формата : 4 кадра
    Идентификатор кодека : V_MPEG4/ISO/AVC
    Продолжительность : 1 ч. 41 м.
    Битрейт : 3087 Кбит/сек
    Ширина : 720 пикселей
    Высота : 576 пикселей
    Соотношение сторон : 4:3
    Соотношение сторон в оригинале : 4:3
    Режим частоты кадров : Постоянный
    Частота кадров : 25,000 кадров/сек
    Стандарт вещания : PAL
    Цветовое пространство : YUV
    Субдискретизация насыщенности : 4:2:0
    Битовая глубина : 8 бит
    Тип развёртки : MBAFF
    Бит/(Пиксели*Кадры) : 0.298
    Размер потока : 2,18 Гбайт (92%)
    Default : Да
    Forced : Нет
    Аудио
    Идентификатор : 2
    Формат : MPEG Audio
    Версия формата : Version 1
    Профиль формата : Layer 2
    Режим : Joint stereo
    Расширение режима : Intensity Stereo + MS Stereo
    Идентификатор кодека : A_MPEG/L2
    Идентификатор кодека/Подсказка : MP2
    Продолжительность : 1 ч. 41 м.
    Вид битрейта : Постоянный
    Битрейт : 192 Кбит/сек
    Каналы : 2 канала
    Частота : 48,0 КГц
    Метод сжатия : С потерями
    Размер потока : 139 Мбайт (6%)
    Язык : English
    Default : Да
    Forced : Нет

    Скриншоты

    Скачать .torrent

    Скачать торрент-файл бесплатно и на максимальной скорости!

    Как скачивать? · Что такое торрент? · Рейтинг и ограничения

    !ВНИМАНИЕ!
    Сайт не распространяет и не хранит электронные версии произведений, а занимается лишь лишь предоставлением доступа к создаваемому пользователями каталогу ссылок на торрент-файлы, которые содержат только списки хеш-сумм, убедительная просьба с жалобами обращаться напрямую к пользователю. Файлы для обмена на трекере предоставлены пользователями сайта, и администрация не несёт ответственности за их содержание. Просьба не заливать файлы, защищенные авторскими правами, а также файлы нелегального содержания!


    _________________
    [Профиль] [ЛС]
    Показать сообщения:    
    Ответить на тему

    Текущее время: Сегодня, в 14:16

    Часовой пояс: GMT + 2



    Вы не можете начинать темы
    Вы не можете отвечать на сообщения
    Вы не можете редактировать свои сообщения
    Вы не можете удалять свои сообщения
    Вы не можете голосовать в опросах
    Вы не можете прикреплять файлы к сообщениям
    Вы не можете скачивать файлы