Register  ·  Log in
Forgot password?

  • Упакованные (Петр Гладилин) [2013, Комедия, приключения, HDTVRip]

    Reply to topic
    Author Message


    Post 09-Dec-2015 00:13



    УпакованныеЖанр: Комедия, приключения
    Год выпуска: 2013
    Продолжительность: 01:25:11
    Режиссёр: Петр Гладилин
    В ролях: Камиль Ларин, Татьяна Яковенко, Иван Жидков, Елена Кутырева, Иван Кокорин, Иван Замотаев, Елена Аросьева
    Описание: Уж если день не задался, готовься к крупным проблемам. А если разругался с любимой женой, ни в коем случае не садись за руль. Обязательно будут неприятности. Но крутой бизнесмен Сергей Камаев сел за руль и обеспечил проблемы себе, своей жене Марго, ее бывшему любовнику Ивану и даже Анечке, молодой жене Ивана. Судьба-злодейка распорядилась так, что они все вместе ночью окажутся в одной машине, да еще и в шикарном кабриолете, упакованные в целлофан во весь рост, и их будут преследовать два отвратительных типа на ржавом пикапе.
    Сэмпл:Рип от:
    Качество видео: HDTVRip
    Формат видео: AVI
    Видео: 640x336 (1.90:1), 25 fps, XviD build 73 ~1084 kbps avg, 0.20 bit/pixel
    Аудио: 48 kHz, MPEG Layer 3, 2 ch, ~128.00 kbps avg


    Complete name : D:\ТОРРЕНТ\Мои Рипы\Упакованные\Upakovannye.2013.HDTVRip.Шкипер.avi
    Format : AVI
    Format/Info : Audio Video Interleave
    File size : 745 MiB
    Duration : 1h 25mn
    Overall bit rate : 1 222 Kbps
    Writing application : VirtualDubMod | || (build 2550/release)
    Writing library : VirtualDubMod build 2550/release
    ID : 0
    Format : MPEG-4 Visual
    Format profile : Advanced Simple@L5
    Format settings, BVOP : 1
    Format settings, QPel : No
    Format settings, GMC : No warppoints
    Format settings, Matrix : Default (MPEG)
    Codec ID : XVID
    Codec ID/Hint : XviD
    Duration : 1h 25mn
    Bit rate : 1 085 Kbps
    Width : 640 pixels
    Height : 336 pixels
    Display aspect ratio : 1.905
    Frame rate : 25.000 fps
    Color space : YUV
    Chroma subsampling : 4:2:0
    Bit depth : 8 bits
    Scan type : Progressive
    Compression mode : Lossy
    Bits/(Pixel*Frame) : 0.202
    Stream size : 661 MiB (89%)
    Writing library : XviD 73
    ID : 1
    Format : MPEG Audio
    Format version : Version 1
    Format profile : Layer 3
    Mode : Joint stereo
    Codec ID : 55
    Codec ID/Hint : MP3
    Duration : 1h 25mn
    Bit rate mode : Constant
    Bit rate : 128 Kbps
    Channel(s) : 2 channels
    Sampling rate : 48.0 KHz
    Compression mode : Lossy
    Stream size : 78.0 MiB (10%)
    Alignment : Aligned on interleaves
    Interleave, duration : 40 ms (1.00 video frame)
    Interleave, preload duration : 504 ms
    Writing library : LAME3.99r
    Encoding settings : -m j -V 4 -q 2 -lowpass 17 -b 128

    Скриншот c названием фильма


    Download .torrent

    Download free and at maximum speed!

    How to Download? · What is a torrent? · Ratings and Limitations

    The site does not extend and does not store electronic(digital) versions of products, and only gives access to a reference catalogue created by users on torrent-files which contain only lists of the hash-sums, the earnest entreaty, with complaints(abuse) to access directly to the user. Files for an exchange on tracker are given by users of a site, and the administration does not bear the responsibility for their maintenance. The request to not fill in the files protected by copyrights, and also files of the illegal maintenance!

    [Profile] [PM]
    Display posts from previous:    
    Reply to topic

    The time now is: Today 04:08

    All times are GMT + 3 Hours

    You cannot post new topics in this forum
    You cannot reply to topics in this forum
    You cannot edit your posts in this forum
    You cannot delete your posts in this forum
    You cannot vote in polls in this forum
    You cannot attach files in this forum
    You cannot download files in this forum