Register  ·  Log in
Forgot password?

  • Слотер / Бойня / Slaughter (Джек Старретт / Jack Starrett) [1972, США, Мексика, боевик, SATRip] DVO

    Reply to topic
    Author Message


    Post 04-Aug-2013 21:20



    Слотер / Бойня / Slaughter
    Страна: США, Мексика
    Жанр: боевик
    Год выпуска: 1972
    Продолжительность: 01:28:41
    Перевод: Профессиональный (двухголосый закадровый)
    Cубтитры: нет
    Режиссер: Джек Старретт / Jack Starrett
    В ролях: Джим Браун, Стелла Стивенс. Рип Торн, Кэмерон Митчелл, Дон Гордон, Марлен Кларк, Роберт Филлипс, Мэрион Браш, Norman Alfe, Эдди Ло Рус и другие
    Описание: Бывший зелёный берет по кличке Мясник мстит мафии за убийство своих родителей и в процессе свершения возмездия впутывается в секретную правительственную операцию.
    Доп. информация: За исходник спасибо Valeronius
    Качество видео: SATRip
    Формат видео: AVI
    Видео: 640x480 (1.33:1), 25 fps, XviD build 50 ~2099 kbps avg, 0.27 bit/pixel
    Аудио: 48 kHz, AC3 Dolby Digital, 2/0 (L,R) ch, ~192 kbps


    Бойня - Slaughter [Rip by Edich2].avi
    Format : AVI
    Format/Info : Audio Video Interleave
    File size : 1.43 GiB
    Duration : 1h 28mn
    Overall bit rate : 2 302 Kbps
    Movie name : Бойня - Slaughter [Rip by Edich2]
    Director : Rip by Edich2
    Writing application : VirtualDubMod | || (build 2550/release)
    Comment :
    ID : 0
    Format : MPEG-4 Visual
    Format profile : Advanced Simple@L5
    Format settings, BVOP : 2
    Format settings, QPel : No
    Format settings, GMC : No warppoints
    Format settings, Matrix : Custom
    Codec ID : XVID
    Codec ID/Hint : XviD
    Duration : 1h 28mn
    Bit rate : 2 100 Kbps
    Width : 640 pixels
    Height : 480 pixels
    Display aspect ratio : 4:3
    Frame rate : 25.000 fps
    Color space : YUV
    Chroma subsampling : 4:2:0
    Bit depth : 8 bits
    Scan type : Progressive
    Compression mode : Lossy
    Bits/(Pixel*Frame) : 0.273
    Stream size : 1.30 GiB (91%)
    Writing library : XviD 1.2.1 (UTC 2008-12-04)
    ID : 1
    Format : AC-3
    Format/Info : Audio Coding 3
    Mode extension : CM (complete main)
    Format settings, Endianness : Big
    Codec ID : 2000
    Duration : 1h 28mn
    Bit rate mode : Constant
    Bit rate : 192 Kbps
    Channel(s) : 2 channels
    Channel positions : Front: L R
    Sampling rate : 48.0 KHz
    Bit depth : 16 bits
    Compression mode : Lossy
    Stream size : 122 MiB (8%)
    Alignment : Split accross interleaves
    Interleave, duration : 40 ms (1.00 video frame)
    Interleave, preload duration : 500 ms


    Download .torrent

    Download free and at maximum speed!

    How to Download? · What is a torrent? · Ratings and Limitations

    The site does not extend and does not store electronic(digital) versions of products, and only gives access to a reference catalogue created by users on torrent-files which contain only lists of the hash-sums, the earnest entreaty, with complaints(abuse) to access directly to the user. Files for an exchange on tracker are given by users of a site, and the administration does not bear the responsibility for their maintenance. The request to not fill in the files protected by copyrights, and also files of the illegal maintenance!

    [Profile] [PM]
    Display posts from previous:    
    Reply to topic

    The time now is: Today 17:44

    All times are GMT + 3 Hours

    You cannot post new topics in this forum
    You cannot reply to topics in this forum
    You cannot edit your posts in this forum
    You cannot delete your posts in this forum
    You cannot vote in polls in this forum
    You cannot attach files in this forum
    You cannot download files in this forum