BitTorrentTracker PerecTracker.org
BitTorrentTracker PerecTracker.org
    
Регистрация  ·  Вход
 
 · 
Забыли пароль?

  • Не в парнях счастье (Кира Ангелина) [2014, Мелодрама, HDTVRip]

    Ответить на тему
     
    Автор Сообщение

    rechyn

    Создавать темы 08-Дек-2015 23:13

           

    [Цитировать]

    Не в парнях счастьеЖанр: Мелодрама
    Год выпуска: 2014
    Продолжительность: 01:33:31
    Режиссёр: Кира Ангелина
    В ролях: Любовь Баханкова, Марина Могилевская, Кирилл Плетнёв, Агата Муцениеце, Михаил Гаврилов (II)
    Описание: Жизнь не балует Диану – вечные семейные ссоры, безденежье и однообразные студенческие будни. Но однажды в ее жизнь приходит чудо – она встречает Его. Сергей прекрасен, как герой ее снов, и девушка теряет голову от любви. Однако нежданное счастье внезапно обрывается: накануне свадьбы Диана застает любимого в объятиях лучшей подруги. Девушка в ужасе, она не знает, как простить предательство и как жить дальше. В этот переломный момент ей на помощь приходит мать Сергея, Елена – успешная, независимая бизнес-леди. Следуя ее наставлениям, героиня решает порвать с прошлыми наивными мечтами и стать расчетливой стервой, идущей к своей цели и ломающей все преграды на своем пути
    Сэмпл: http://multi-up.com/1007378
    Качество видео: HDTVRip
    Формат видео: AVI
    Видео: 640x336 (1.90:1), 25 fps, XviD build 73 ~976 kbps avg, 0.18 bit/pixel
    Аудио: 48 kHz, MPEG Layer 3, 2 ch, ~128.00 kbps avg
    Рип от:

    MediaInfo

    General
    Complete name : D:\Для Рипа\Ne.v.parnyah.schaste.2014.HDTVRip.Шкипер.avi
    Format : AVI
    Format/Info : Audio Video Interleave
    File size : 746 MiB
    Duration : 1h 33mn
    Overall bit rate : 1 114 Kbps
    Writing application : VirtualDubMod 1.5.10.3 | www.virtualdub-fr.org || (build 2550/release)
    Writing library : VirtualDubMod build 2550/release
    Video
    ID : 0
    Format : MPEG-4 Visual
    Format profile : Advanced Simple@L5
    Format settings, BVOP : 1
    Format settings, QPel : No
    Format settings, GMC : No warppoints
    Format settings, Matrix : Default (MPEG)
    Codec ID : XVID
    Codec ID/Hint : XviD
    Duration : 1h 33mn
    Bit rate : 977 Kbps
    Width : 640 pixels
    Height : 336 pixels
    Display aspect ratio : 1.905
    Frame rate : 25.000 fps
    Color space : YUV
    Chroma subsampling : 4:2:0
    Bit depth : 8 bits
    Scan type : Progressive
    Compression mode : Lossy
    Bits/(Pixel*Frame) : 0.182
    Stream size : 653 MiB (88%)
    Writing library : XviD 73
    Audio
    ID : 1
    Format : MPEG Audio
    Format version : Version 1
    Format profile : Layer 3
    Mode : Joint stereo
    Mode extension : MS Stereo
    Codec ID : 55
    Codec ID/Hint : MP3
    Duration : 1h 33mn
    Bit rate mode : Constant
    Bit rate : 128 Kbps
    Channel(s) : 2 channels
    Sampling rate : 48.0 KHz
    Compression mode : Lossy
    Stream size : 85.6 MiB (11%)
    Alignment : Aligned on interleaves
    Interleave, duration : 40 ms (1.00 video frame)
    Interleave, preload duration : 504 ms
    Writing library : LAME3.99r
    Encoding settings : -m j -V 4 -q 2 -lowpass 17 -b 128

    Скриншот c названием фильма

    Скриншоты

    Скачать .torrent

    Скачать торрент-файл бесплатно и на максимальной скорости!

    Как скачивать? · Что такое торрент? · Рейтинг и ограничения

    !ВНИМАНИЕ!
    Сайт не распространяет и не хранит электронные версии произведений, а занимается лишь лишь предоставлением доступа к создаваемому пользователями каталогу ссылок на торрент-файлы, которые содержат только списки хеш-сумм, убедительная просьба с жалобами обращаться напрямую к пользователю. Файлы для обмена на трекере предоставлены пользователями сайта, и администрация не несёт ответственности за их содержание. Просьба не заливать файлы, защищенные авторскими правами, а также файлы нелегального содержания!


    _________________
    [Профиль] [ЛС]
    Показать сообщения:    
    Ответить на тему

    Текущее время: Сегодня, в 01:53

    Часовой пояс: GMT + 2



    Вы не можете начинать темы
    Вы не можете отвечать на сообщения
    Вы не можете редактировать свои сообщения
    Вы не можете удалять свои сообщения
    Вы не можете голосовать в опросах
    Вы не можете прикреплять файлы к сообщениям
    Вы не можете скачивать файлы