Register  ·  Log in
Forgot password?

  • Совсем не простая история (Фёдор Попов) [2014, Драма, комедия, SATRip]

    Reply to topic
    Author Message


    Post 09-Dec-2015 00:13



    Совсем не простая история
    Жанр: Драма, комедия
    Год выпуска: 2014
    Продолжительность: 01:48:48
    Режиссёр: Фёдор Попов
    В ролях: Даниил Спиваковский, Алексей Ионов, Егор Баринов, Юлия Йенч, Евгения Крегжде, Дмитрий Калистратов, Анастасия Привалова, Виталий Отинов, Милена Давыдова, Роман Сеньков
    Описание: В основе сюжета фильма жизненные пути двух людей — взрослого человека и подростка, пересекаются в тот момент, когда оба они стоят на краю жизни. Подросток случайно спасает жизнь взрослого. Взрослый видит, что парень, спасший его, почти след в след шагает по той же тропинке, которая его самого чуть не привела к гибели...

    Качество видео: SATRip
    Формат видео: AVI
    Видео: DivX, 1662 Кбит/с, 704x304 (2.35:1), 25 кадр/с
    Аудио: Русский, MP3, 48000 Гц, 128 Кбит/с, 2 канала (Стерео)


    Complete name :
    Format : AVI
    Format/Info : Audio Video Interleave
    File size : 1.37 GiB
    Duration : 1h 48mn
    Overall bit rate : 1 800 Kbps
    Writing library : VirtualDub build 35491/release
    ID : 0
    Format : MPEG-4 Visual
    Format settings, BVOP : 1
    Format settings, QPel : No
    Format settings, GMC : No warppoints
    Format settings, Matrix : Default (H.263)
    Muxing mode : Packed bitstream
    Codec ID : DX50
    Codec ID/Hint : DivX 5
    Duration : 1h 48mn
    Bit rate : 1 662 Kbps
    Width : 704 pixels
    Height : 304 pixels
    Display aspect ratio : 2.35:1
    Frame rate : 25.000 fps
    Color space : YUV
    Chroma subsampling : 4:2:0
    Bit depth : 8 bits
    Scan type : Progressive
    Compression mode : Lossy
    Bits/(Pixel*Frame) : 0.311
    Stream size : 1.26 GiB (92%)
    Writing library : DivX 6.8.5 (UTC 2009-08-20)
    ID : 1
    Format : MPEG Audio
    Format version : Version 1
    Format profile : Layer 3
    Mode : Joint stereo
    Mode extension : MS Stereo
    Codec ID : 55
    Codec ID/Hint : MP3
    Duration : 1h 48mn
    Bit rate mode : Constant
    Bit rate : 128 Kbps
    Channel(s) : 2 channels
    Sampling rate : 48.0 KHz
    Compression mode : Lossy
    Stream size : 99.6 MiB (7%)
    Alignment : Split accross interleaves
    Interleave, duration : 40 ms (1.00 video frame)
    Interleave, preload duration : 500 ms

    Скриншот c названием фильма


    Download .torrent

    Download free and at maximum speed!

    How to Download? · What is a torrent? · Ratings and Limitations

    The site does not extend and does not store electronic(digital) versions of products, and only gives access to a reference catalogue created by users on torrent-files which contain only lists of the hash-sums, the earnest entreaty, with complaints(abuse) to access directly to the user. Files for an exchange on tracker are given by users of a site, and the administration does not bear the responsibility for their maintenance. The request to not fill in the files protected by copyrights, and also files of the illegal maintenance!

    [Profile] [PM]
    Display posts from previous:    
    Reply to topic

    The time now is: Today 06:14

    All times are GMT + 3 Hours

    You cannot post new topics in this forum
    You cannot reply to topics in this forum
    You cannot edit your posts in this forum
    You cannot delete your posts in this forum
    You cannot vote in polls in this forum
    You cannot attach files in this forum
    You cannot download files in this forum