BitTorrentTracker PerecTracker.org
BitTorrentTracker PerecTracker.org
    
Регистрация  ·  Вход
 
 · 
Забыли пароль?

  • Непобедимый (Олег Погодин) [2008 г., Боевик, SATRip] киноверсия

    Ответить на тему
     
    Автор Сообщение

    rechyn

    Создавать темы 08-Дек-2015 23:13

           

    [Цитировать]

    НепобедимыйГод выпуска: 2008.
    Жанр: Боевик.
    Продолжительность: 01:53:31.
    Режиссер: Олег Погодин.
    В ролях:
    Владимир Епифанцев, Сергей Астахов, Ольга Фадеева, Юрий Соломин, Владимир Стеклов, Сергей Векслер, Владимир Турчинский, Тагир Рахимов, Александр Хованский, Кит Маллет, Игорь Якимов, Дмитрий Добужинский.
    Описание:
    Егор Кремнёв - специальный агент российской разведки. В последнее время его преследуют неудачи: провал боевой операции в Колумбии, где Кремнёв руководил группой захвата, унёс жизни всех его товарищей. Кремнёва обвиняют в этой трагедии. Его лишают командирских полномочий. Теперь он - рядовой агент. Но похоже на этом его беды не закончились. Во время последнего задания, которое обещало быть простым и безопасным, колумбийская трагедия повторилась - снова погибли все соратники Кремнёва. А человек, которого должны были захватить, оказался секретарём беглого олигарха Соркина - Михаилом Шерингом, давно находившимся в розыске. У Шеринга, по слухам, есть секретные бумаги, за которыми охотится не только российская разведка, но и могущественный преступный синдикат Запада. Кремнёву предстоит доставить Шеринга на родину, когда вокруг - сплошные предательства, заговоры, засады и ловушки.
    Доп. информация:
    Страна: Россия .
    Киностудия: «Парк Синема» по заказу «Централ Партнершип».
    Автор сценария: Олег Погодин.
    Оператор: Томаш Августинек.
    Композиторы: Александр Соколов, Владимир Поляков.
    Художник: Денис Куприн.
    Премьера: 23 октября 2008 года.

    Релиз
    Большое спасибо dean10 за предоставленый материал!!!

    Качество: SATRip
    Формат: AVI
    Видео: 704x400 (1.76:1), 25 fps, XviD build 65 ~2400 kbps avg, 0.34 bit/pixel
    Аудио: 48 kHz, AC3 Dolby Digital, 2/0 (L,R) ch, ~192 kbps

    Отчет MediaInfo

    Общее
    Полное имя : Nepobedimyj.2008.XviD.SATRip_2.06.avi
    Формат : AVI
    Формат/Информация : Audio Video Interleave
    Профиль формата : OpenDML
    Размер файла : 2,06 Гбайт
    Продолжительность : 1 ч. 53 м.
    Общий поток : 2599 Кбит/сек
    Программа кодирования : VirtualDubMod 1.5.10.3 | www.virtualdub-fr.org || (build 2550/release)
    Библиотека кодирования : VirtualDubMod build 2550/release
    Видео
    Идентификатор : 0
    Формат : MPEG-4 Visual
    Профиль формата : Advanced Simple@L5
    Параметр BVOP формата : 2
    Параметр QPel формата : Нет
    Параметр GMC формата : Без точки перехода
    Параметр матрицы формата : Выборочная
    Идентификатор кодека : XVID
    Идентификатор кодека/Подсказка : XviD
    Продолжительность : 1 ч. 53 м.
    Битрейт : 2395 Кбит/сек
    Ширина : 704 пикселя
    Высота : 400 пикселей
    Соотношение сторон : 16:9
    Частота кадров : 25,000 кадров/сек
    Цветовое пространство : YUV
    Субдискретизация насыщенности : 4:2:0
    Битовая глубина : 8 бит
    Тип развёртки : Прогрессивная
    Метод сжатия : С потерями
    Бит/(Пиксели*Кадры) : 0.340
    Размер потока : 1,90 Гбайт (92%)
    Библиотека кодирования : XviD 65
    Аудио
    Идентификатор : 1
    Формат : AC-3
    Формат/Информация : Audio Coding 3
    Расширение режима : CM (complete main)
    Параметр Endianness формата : Big
    Идентификатор кодека : 2000
    Продолжительность : 1 ч. 53 м.
    Вид битрейта : Постоянный
    Битрейт : 192 Кбит/сек
    Каналы : 2 канала
    Расположение каналов : Front: L R
    Частота : 48,0 КГц
    Битовая глубина : 16 бит
    Метод сжатия : С потерями
    Размер потока : 156 Мбайт (7%)
    Выравнивание : Разделение по промежуткам
    Продолжительность промежутка : 40 мс. (1,00 видеокадр)
    Время предзагрузки промежутка : 500 мс.
    Скриншоты

    Альтернативный хост


    Скачать .torrent

    Скачать торрент-файл бесплатно и на максимальной скорости!

    Как скачивать? · Что такое торрент? · Рейтинг и ограничения

    !ВНИМАНИЕ!
    Сайт не распространяет и не хранит электронные версии произведений, а занимается лишь лишь предоставлением доступа к создаваемому пользователями каталогу ссылок на торрент-файлы, которые содержат только списки хеш-сумм, убедительная просьба с жалобами обращаться напрямую к пользователю. Файлы для обмена на трекере предоставлены пользователями сайта, и администрация не несёт ответственности за их содержание. Просьба не заливать файлы, защищенные авторскими правами, а также файлы нелегального содержания!


    _________________
    [Профиль] [ЛС]
    Показать сообщения:    
    Ответить на тему

    Текущее время: Сегодня, в 02:56

    Часовой пояс: GMT + 2



    Вы не можете начинать темы
    Вы не можете отвечать на сообщения
    Вы не можете редактировать свои сообщения
    Вы не можете удалять свои сообщения
    Вы не можете голосовать в опросах
    Вы не можете прикреплять файлы к сообщениям
    Вы не можете скачивать файлы