BitTorrentTracker PerecTracker.org
BitTorrentTracker PerecTracker.org
    
Регистрация  ·  Вход
 
 · 
Забыли пароль?

  • Непобедимый (Олег Погодин) [2008, Боевик, DVDRip]

    Ответить на тему
     
    Автор Сообщение

    rechyn

    Создавать темы 08-Дек-2015 23:13

           

    [Цитировать]

    Непобедимый / Расш. версия(Телевизионная)
    Страна:Россия
    Жанр: Боевик
    Год выпуска: 2008
    Продолжительность: 03:25:20
    Режиссёр: Олег Погодин
    В ролях:
    Владимир Епифанцев — Егор Кремнёв
    Сергей Астахов — Михаил Шеринг
    Ольга Фадеева — Надежда Орлова
    Владимир Стеклов — генерал Лямин
    Олег Вавилов — генерал Зубов, начальник Кремнёва
    Сергей Векслер — полковник Уколов
    Владимир Турчинский — Солодов
    Тагир Рахимов — полковник Козырев
    Александр Хованский — Борис Гехт
    Кит Маллет — Рауль
    Игорь Якимов — человек со шрамом
    Дмитрий Добужинский — Пёстренький
    Александр Дрожжин — Старший, группа захвата
    Александр Лырчиков — Маленький, из группы захвата

    Описание: Агент Службы внешней разведки России Егор Кремнёв (Владимир Епифанцев) получает задание — конвоировать Михаила Шеринга (Сергей Астахов), секретаря беглого олигарха Соркина c Мальты в Россию. В последней операции в Колумбии погибла вся команда Кремнёва и его разжаловали. Новое задание оказывается не таким простым, как в начале казалось: во время встречи с Шерингом, от рук неизвестных, погибают все коллеги Кремнёва. Он остаётся единственным кто может доставить Шеринга в Россию. Егор уже никому не доверяет, кругом предательства (даже в руководстве Службы), заговоры, засады и ловушки. Даже новая помощница из Центра Надежда Орлова (Ольга Фадеева) вызывает у него сомнения.
    Но самая главная ловушка Кремнёва это объект доставки — Шеринг. Егор так и не сможет избавиться от влияния своего попутчика, да к тому же Шеринг сможет временно переманить на свою сторону Надежду. Это смертельно опасное путешествие изменит обоих: и побеждённого Шеринга, и непобедимого Кремнёва.

    Доп. информация: Исходник DVD-9, релиз OLGER.
    Сэмпл: http://multi-up.com/1008933
    Качество видео: DVDRip
    Формат видео: AVI
    Видео: Xvid 720x384 25fps 1826kbps [V: mpeg4 advanced simple profile, yuv420p, 720x384, 1826 kb/s]
    Аудио: Dolby AC3 48000Hz stereo 192kbps [A: ac3, 48000 Hz,2 channels , stereo, 192 kb/s]

    MediaInfo

    General
    Complete name : C:Nepobedimyj.Extended.Cut.avi
    Format : AVI
    Format/Info : Audio Video Interleave
    Format profile : OpenDML
    File size : 2.91 GiB
    Duration : 3h 25mn
    Overall bit rate : 2 029 Kbps
    Movie name : Непобедимый [Телевизионная версия] (2008) DVDRip от olger
    Director : olger
    Writing application : VirtualDubMod 1.5.10.2 (build 2542/release)
    Copyright : hellywood.ru
    Comment : DVD9
    Video
    ID : 0
    Format : MPEG-4 Visual
    Format profile : Advanced Simple@L5
    Format settings, BVOP : 1
    Format settings, QPel : No
    Format settings, GMC : No warppoints
    Format settings, Matrix : Custom
    Codec ID : XVID
    Codec ID/Hint : XviD
    Duration : 3h 25mn
    Bit rate : 1 827 Kbps
    Width : 720 pixels
    Height : 384 pixels
    Display aspect ratio : 1.85:1
    Frame rate : 25.000 fps
    Color space : YUV
    Chroma subsampling : 4:2:0
    Bit depth : 8 bits
    Scan type : Progressive
    Compression mode : Lossy
    Bits/(Pixel*Frame) : 0.264
    Stream size : 2.62 GiB (90%)
    Writing library : XviD 1.2.1 (UTC 2008-12-04)
    Audio
    ID : 1
    Format : AC-3
    Format/Info : Audio Coding 3
    Mode extension : CM (complete main)
    Format settings, Endianness : Big
    Codec ID : 2000
    Duration : 3h 25mn
    Bit rate mode : Constant
    Bit rate : 192 Kbps
    Channel(s) : 2 channels
    Channel positions : Front: L R
    Sampling rate : 48.0 KHz
    Bit depth : 16 bits
    Compression mode : Lossy
    Stream size : 282 MiB (9%)
    Alignment : Split accross interleaves
    Interleave, duration : 40 ms (1.00 video frame)
    Interleave, preload duration : 500 ms

    Скриншоты

    Скачать .torrent

    Скачать торрент-файл бесплатно и на максимальной скорости!

    Как скачивать? · Что такое торрент? · Рейтинг и ограничения

    !ВНИМАНИЕ!
    Сайт не распространяет и не хранит электронные версии произведений, а занимается лишь лишь предоставлением доступа к создаваемому пользователями каталогу ссылок на торрент-файлы, которые содержат только списки хеш-сумм, убедительная просьба с жалобами обращаться напрямую к пользователю. Файлы для обмена на трекере предоставлены пользователями сайта, и администрация не несёт ответственности за их содержание. Просьба не заливать файлы, защищенные авторскими правами, а также файлы нелегального содержания!


    _________________
    [Профиль] [ЛС]
    Показать сообщения:    
    Ответить на тему

    Текущее время: Сегодня, в 02:56

    Часовой пояс: GMT + 2



    Вы не можете начинать темы
    Вы не можете отвечать на сообщения
    Вы не можете редактировать свои сообщения
    Вы не можете удалять свои сообщения
    Вы не можете голосовать в опросах
    Вы не можете прикреплять файлы к сообщениям
    Вы не можете скачивать файлы