BitTorrentTracker PerecTracker.org
BitTorrentTracker PerecTracker.org
    
Регистрация  ·  Вход
 
 · 
Забыли пароль?

  • Билет в красный театр, или Смерть гробокопателя (Амурбек Гобашиев) [1992, детектив, VHSRip]

    Ответить на тему
     
    Автор Сообщение

    rechyn

    Создавать темы 08-Дек-2015 23:13

           

    [Цитировать]

    Билет в красный театр, или Смерть гробокопателя
    Жанр: детектив
    Год выпуска: 1992
    Продолжительность: 01:35:15.
    Режиссёр: Амурбек Гобашиев
    В ролях: Олег Басилашвили, Александр Черкашин, Александр Числов, Александр Фатюшин, Виктор Ильичёв, Евгений Лебедев, Леонид Неведомский, Николай Трофимов, Александр Карпов (III), Сергей Куприянов, Андрей Толубеев, Татьяна Ткач, Алексей Климушкин, Марина Яковлева
    Описание: Ноябрем 1934 года был датирован театральный билет, который попал в руки двух студентов, когда они вскрыли одну из могил. Театральный билет, обнаруженный около черепа с дыркой, возбудил у них жгучий интерес... Акт вандализма на Волковском кладбище стал расследовать подполковник милиции Кузнецов, который очень скоро придет к выводу о том, что все убийства, связанные с этим билетом, имеют прямое отношение к убийству Кирова.
    Доп. информация: Оцифровка VHS (личный архив) и получение VHSRip alenavova
    Эксклюзив для perectracker.org. При размещении данного релиза на других сайтах ссылка на автора alenavova обязательна.

    Релиз
    Сэмпл: https://yadi.sk/i/oWFZqWFBcNuDR
    Качество видео: VHSRip
    Формат видео: AVI
    Видео: 640x480 (1.33:1), 25 fps, XviD build 50 ~1989 kbps avg, 0.26 bit/pixel
    Аудио: 48 kHz, AC3 Dolby Digital, 2/0 (L,R) ch, ~192 kbps

    MediaInfo

    Билет в Красный театр [by alenavova].avi
    Format : AVI
    Format/Info : Audio Video Interleave
    File size : 1.46 GiB
    Duration : 1h 35mn
    Overall bit rate : 2 192 Kbps
    Movie name : Билет в Красный театр [by alenavova]
    Director : by alenavova
    Writing application : VirtualDubMod 1.5.10.3 | www.virtualdub-fr.org || (build 2550/release)
    Copyright : Edich2
    Comment : RuTracker.org
    Video
    ID : 0
    Format : MPEG-4 Visual
    Format profile : Advanced Simple@L5
    Format settings, BVOP : 2
    Format settings, QPel : No
    Format settings, GMC : No warppoints
    Format settings, Matrix : Custom
    Codec ID : XVID
    Codec ID/Hint : XviD
    Duration : 1h 35mn
    Bit rate : 1 990 Kbps
    Width : 640 pixels
    Height : 480 pixels
    Display aspect ratio : 4:3
    Frame rate : 25.000 fps
    Color space : YUV
    Chroma subsampling : 4:2:0
    Bit depth : 8 bits
    Scan type : Progressive
    Compression mode : Lossy
    Bits/(Pixel*Frame) : 0.259
    Stream size : 1.32 GiB (91%)
    Writing library : XviD 1.2.1 (UTC 2008-12-04)
    Audio
    ID : 1
    Format : AC-3
    Format/Info : Audio Coding 3
    Mode extension : CM (complete main)
    Format settings, Endianness : Big
    Codec ID : 2000
    Duration : 1h 35mn
    Bit rate mode : Constant
    Bit rate : 192 Kbps
    Channel(s) : 2 channels
    Channel positions : Front: L R
    Sampling rate : 48.0 KHz
    Bit depth : 16 bits
    Compression mode : Lossy
    Stream size : 131 MiB (9%)
    Alignment : Split accross interleaves
    Interleave, duration : 40 ms (1.00 video frame)
    Interleave, preload duration : 500 ms

    Скриншоты


    Скачать .torrent

    Скачать торрент-файл бесплатно и на максимальной скорости!

    Как скачивать? · Что такое торрент? · Рейтинг и ограничения

    !ВНИМАНИЕ!
    Сайт не распространяет и не хранит электронные версии произведений, а занимается лишь лишь предоставлением доступа к создаваемому пользователями каталогу ссылок на торрент-файлы, которые содержат только списки хеш-сумм, убедительная просьба с жалобами обращаться напрямую к пользователю. Файлы для обмена на трекере предоставлены пользователями сайта, и администрация не несёт ответственности за их содержание. Просьба не заливать файлы, защищенные авторскими правами, а также файлы нелегального содержания!


    _________________
    [Профиль] [ЛС]
    Показать сообщения:    
    Ответить на тему

    Текущее время: Сегодня, в 07:59

    Часовой пояс: GMT + 2



    Вы не можете начинать темы
    Вы не можете отвечать на сообщения
    Вы не можете редактировать свои сообщения
    Вы не можете удалять свои сообщения
    Вы не можете голосовать в опросах
    Вы не можете прикреплять файлы к сообщениям
    Вы не можете скачивать файлы