BitTorrentTracker PerecTracker.org
BitTorrentTracker PerecTracker.org
    
Регистрация  ·  Вход
 
 · 
Забыли пароль?

  • Сибирский цирюльник / The Barber of Siberia (Никита Михалков) [1998, драма, DVDRip-AVC] Original + Eng + Sub (Rus, Eng)

    Ответить на тему
     
    Автор Сообщение

    rechyn

    Создавать темы 08-Дек-2015 23:13

           

    [Цитировать]

    Сибирский цирюльник / The Barber of Siberia-«Он русский. Это многое объясняет»-Год выпуска: 1998
    Страна: Россия, Франция, Италия, Чехия
    Жанр: драма
    Продолжительность: 02:52:03
    Cубтитры: русские (на англ. речь), английские (на рус. речь)-Режиссёр: Никита Михалков
    В ролях: Олег Меньшиков, Джулия Ормонд, Ричард Харрис, Алексей Петренко, Марина Неёлова, Владимир Ильин, Даниэль Ольбрыхский, Анна Михалкова, Марат Башаров, Никита Татаренков, Артем Михалков, Георгий Дронов, Авангард Леонтьев, Роберт Харди, Элизабет Сприггс, Никита Михалков, Изабель Рено, Евгений Стеблов, Владимир Зайцев, Виктор Вержбицкий, Леонид Куравлёв, Александр Леньков, Александр Ильин, Евгений Дворжецкий
    Описание: Годы правления Александра III. «Сибирский цирюльник» — паровая самоходная лесопилка, заказ на производство которой пытается получить в российских государственных органах американский авантюрист Маккрэкен. Для своей поддержки он вызывает в Москву Джейн, чья задача — обворожить генерала Радлова и уговорить его дать согласие на разработку машины.
    По пути Джейн знакомится с юнкером Андреем Толстым. Он влюбляется в иностранку и в порыве ревности избивает соперника-генерала. Бывшего юнкера, закованного в кандалы, отправляют в Сибирь, разлучив с возлюбленной…-: 7.8/10
    : 7.9/10
    -Сэмпл-Качество видео: DVDRip-AVC | исходник SIBIRSKY_TSIRULNIK DVD9 (R.U.S.C.I.C.O)
    Формат: MKV
    Видео кодек: AVC
    Аудио кодек: AC3
    Видео: x264, 718x432@1021x432 (2.36), 25.000fps, 1940kbps, 0.244 bit/pixel
    Аудио 1: Russian AC3, 48kHz, 6ch, 448 kbps
    Аудио 2: English AC3, 48kHz, 6ch, 448 kbps (отдельно)
    Формат субтитров: softsub (SRT)-

    MediaInfo

    Complete name : C:\...\The.Barber.of.Siberia.1999.x264.DVDRip.ac3.Rus.subs.mkv
    Format : Matroska
    Format version : Version 4 / Version 2
    File size : 2.87 GiB
    Duration : 2h 52mn
    Overall bit rate : 2 390 Kbps
    Encoded date : UTC 2014-11-01 08:42:25
    Writing application : mkvmerge v7.2.0 ('On Every Street') 32bit built on Sep 13 2014 15:42:11
    Writing library : libebml v1.3.0 + libmatroska v1.4.1
    Attachements : Cover.jpeg
    _STATISTICS_WRITING_APP : mkvmerge v7.2.0 ('On Every Street') 32bit built on Sep 13 2014 15:42:11
    _STATISTICS_WRITING_DATE_UTC : 2014-11-01 08:42:25
    _STATISTICS_TAGS : BPS DURATION NUMBER_OF_FRAMES NUMBER_OF_BYTES
    DURATION : 02:52:00.614000000
    NUMBER_OF_FRAMES : 621
    NUMBER_OF_BYTES : 18775
    Video
    ID : 1
    Format : AVC
    Format/Info : Advanced Video Codec
    Format profile : High@L4.1
    Format settings, CABAC : Yes
    Format settings, ReFrames : 10 frames
    Codec ID : V_MPEG4/ISO/AVC
    Duration : 2h 52mn
    Bit rate : 1 895 Kbps
    Width : 718 pixels
    Height : 432 pixels
    Display aspect ratio : 2.35:1
    Original display aspect ratio : 2.35:1
    Frame rate mode : Constant
    Frame rate : 25.000 fps
    Color space : YUV
    Chroma subsampling : 4:2:0
    Bit depth : 8 bits
    Scan type : Progressive
    Bits/(Pixel*Frame) : 0.244
    Stream size : 2.28 GiB (79%)
    Writing library : x264 core 142 r2453kMod ea0ca51
    Encoding settings : cabac=1 / ref=10 / deblock=1:-1:-1 / analyse=0x3:0x113 / me=umh / subme=11 / psy=1 / fade_compensate=0.00 / psy_rd=1.00:0.00 / mixed_ref=1 / me_range=32 / chroma_me=1 / trellis=2 / 8x8dct=1 / cqm=0 / deadzone=21,11 / fast_pskip=1 / chroma_qp_offset=-2 / threads=3 / lookahead_threads=1 / sliced_threads=0 / nr=0 / decimate=1 / interlaced=0 / bluray_compat=0 / constrained_intra=0 / fgo=0 / bframes=10 / b_pyramid=2 / b_adapt=2 / b_bias=0 / direct=1 / weightb=1 / open_gop=0 / weightp=2 / keyint=250 / keyint_min=25 / scenecut=40 / intra_refresh=0 / rc_lookahead=40 / rc=crf / mbtree=0 / crf=17.8000 / qcomp=0.60 / qpmin=0 / qpmax=69 / qpstep=4 / vbv_maxrate=50000 / vbv_bufsize=62500 / crf_max=0.0 / nal_hrd=none / filler=0 / ip_ratio=1.40 / pb_ratio=1.20 / aq=1:1.00 / zones=250000,258091,q=30
    Language : Russian
    Default : Yes
    Forced : No
    Matrix coefficients : BT.601
    DURATION : 02:52:03.680000000
    NUMBER_OF_FRAMES : 258092
    NUMBER_OF_BYTES : 2503868733
    _STATISTICS_WRITING_APP : mkvmerge v7.2.0 ('On Every Street') 32bit built on Sep 13 2014 15:42:11
    _STATISTICS_WRITING_DATE_UTC : 2014-11-01 08:42:25
    _STATISTICS_TAGS : BPS DURATION NUMBER_OF_FRAMES NUMBER_OF_BYTES
    Audio
    ID : 2
    Format : AC-3
    Format/Info : Audio Coding 3
    Mode extension : CM (complete main)
    Format settings, Endianness : Big
    Codec ID : A_AC3
    Duration : 2h 52mn
    Bit rate mode : Constant
    Bit rate : 448 Kbps
    Channel(s) : 6 channels
    Channel positions : Front: L C R, Side: L R, LFE
    Sampling rate : 48.0 KHz
    Bit depth : 16 bits
    Compression mode : Lossy
    Stream size : 551 MiB (19%)
    Language : Russian
    Default : Yes
    Forced : No
    Text #1
    ID : 3
    Format : UTF-8
    Codec ID : S_TEXT/UTF8
    Codec ID/Info : UTF-8 Plain Text
    Title : На английскую речь
    Language : Russian
    Default : Yes
    Forced : No
    Text #2
    ID : 4
    Format : UTF-8
    Codec ID : S_TEXT/UTF8
    Codec ID/Info : UTF-8 Plain Text
    Title : На русскую речь
    Language : English
    Default : No
    Forced : No

    Log x264

    x264 [info]: 718x432p 64:45 @ 25/1 fps (cfr)
    x264 [info]: profile High, level 4.1
    x264 [info]: cabac=1 ref=10 deblock=1:-1:-1 analyse=0x3:0x113 me=umh subme=11 psy=1 fade_compensate=0.00 psy_rd=1.00:0.00 mixed_ref=1 me_range=32 chroma_me=1 trellis=2 8x8dct=1 cqm=0 deadzone=21,11 fast_pskip=1 chroma_qp_offset=-2 threads=3 lookahead_threads=1 sliced_threads=0 nr=0 decimate=1 interlaced=0 bluray_compat=0 constrained_intra=0 fgo=0 bframes=10 b_pyramid=2 b_adapt=2 b_bias=0 direct=1 weightb=1 open_gop=0 weightp=2 keyint=250 keyint_min=25 scenecut=40 intra_refresh=0 rc_lookahead=40 rc=crf mbtree=0 crf=17.8000 qcomp=0.60 qpmin=0 qpmax=69 qpstep=4 vbv_maxrate=50000 vbv_bufsize=62500 crf_max=0.0 nal_hrd=none filler=0 ip_ratio=1.40 pb_ratio=1.20 aq=1:1.00 zones=250000,258091,q=30
    x264 [info]: frame I:2253 Avg QP:17.43 size: 40037
    x264 [info]: frame P:54463 Avg QP:19.18 size: 18137
    x264 [info]: frame B:201376 Avg QP:21.15 size: 7081
    x264 [info]: consecutive B-frames: 1.5% 1.7% 14.2% 11.4% 7.0% 61.9% 1.6% 0.3% 0.3% 0.1% 0.1%
    x264 [info]: mb I I16..4: 2.2% 86.4% 11.3%
    x264 [info]: mb P I16..4: 1.3% 21.6% 1.5% P16..4: 26.2% 33.0% 12.2% 0.0% 0.0% skip: 4.2%
    x264 [info]: mb B I16..4: 0.3% 2.7% 0.2% B16..8: 28.5% 25.9% 5.3% direct: 9.5% skip:27.8% L0:32.2% L1:45.7% BI:22.2%
    x264 [info]: 8x8 transform intra:87.7% inter:67.2%
    x264 [info]: coded y,uvDC,uvAC intra: 88.2% 83.8% 51.6% inter: 31.3% 24.1% 1.9%
    x264 [info]: i16 v,h,dc,p: 41% 9% 6% 45%
    x264 [info]: i8 v,h,dc,ddl,ddr,vr,hd,vl,hu: 16% 7% 11% 7% 10% 13% 10% 12% 14%
    x264 [info]: i4 v,h,dc,ddl,ddr,vr,hd,vl,hu: 18% 8% 8% 7% 12% 14% 11% 10% 11%
    x264 [info]: i8c dc,h,v,p: 33% 23% 30% 15%
    x264 [info]: Weighted P-Frames: Y:8.6% UV:3.9%
    x264 [info]: ref P L0: 47.0% 11.4% 19.1% 5.6% 4.9% 3.2% 3.2% 1.7% 1.8% 1.5% 0.5% 0.0%
    x264 [info]: ref B L0: 82.6% 10.1% 2.8% 1.4% 1.0% 0.9% 0.7% 0.3% 0.2%
    x264 [info]: ref B L1: 95.8% 4.2%
    x264 [info]: kb/s:1940.29

    Скриншоты

    Сравнение

    Source Encode _vmb
    Скачать .torrent

    Скачать торрент-файл бесплатно и на максимальной скорости!

    Как скачивать? · Что такое торрент? · Рейтинг и ограничения

    !ВНИМАНИЕ!
    Сайт не распространяет и не хранит электронные версии произведений, а занимается лишь лишь предоставлением доступа к создаваемому пользователями каталогу ссылок на торрент-файлы, которые содержат только списки хеш-сумм, убедительная просьба с жалобами обращаться напрямую к пользователю. Файлы для обмена на трекере предоставлены пользователями сайта, и администрация не несёт ответственности за их содержание. Просьба не заливать файлы, защищенные авторскими правами, а также файлы нелегального содержания!


    _________________
    [Профиль] [ЛС]
    Показать сообщения:    
    Ответить на тему

    Текущее время: Сегодня, в 16:29

    Часовой пояс: GMT + 2



    Вы не можете начинать темы
    Вы не можете отвечать на сообщения
    Вы не можете редактировать свои сообщения
    Вы не можете удалять свои сообщения
    Вы не можете голосовать в опросах
    Вы не можете прикреплять файлы к сообщениям
    Вы не можете скачивать файлы