BitTorrentTracker PerecTracker.org
BitTorrentTracker PerecTracker.org
    
Регистрация  ·  Вход
 
 · 
Забыли пароль?

  • Уик-Энд / Weekend (Станислав Говорухин) [2014, драма, нуар, криминал, детектив, WEB-DLRip]

    Ответить на тему
     
    Автор Сообщение

    rechyn

    Создавать темы 08-Дек-2015 23:13

           

    [Цитировать]

    Уик-Энд / Weekend
    Страна: Россия
    Жанр: драма, нуар, криминал, детектив
    Год выпуска: 2014
    Продолжительность: 01:36:47
    Режиссер: Станислав Говорухин
    В ролях: Максим Матвеев, Вячеслав Чепурченко, Виктор Сухоруков, Юлия Пересильд, Екатерина Гусева, Александр Домогаров, Татьяна Коновалова, Марина Орлова, Мария Тверитнева, Юлия Хлынина
    Описание:Сюжет основан на идее романа Ноэля Калефа «Лифт на эшафот», в котором человек совершил убийство и, покидая место преступления, застрял в лифте. Чёрно-белая лента Говорухина — ремейк французской картины 1957 года Луи Маля «Лифт на эшафот». Действие перенесено в наше время, в крупный российский город у моря, с другими персонажами и другим сюжетом — автором адаптации текста романа и фильма является Говорухин.
    Главный герой, работающий в крупной московской компании, убивает аудитора, уличившего его в мошенничестве. Протагонист обставляет убийство как несчастный случай и уходит из здания, но потом возвращается за важными бумагами и застревает в лифте. Как водится, всякое преступление влечёт за собой наказание. Другое дело — какое и за что? Речь идёт о внутренних муках человека, совершившего убийство и поставленного перед непростым выбором: сознаться в содеянном или же взять на себя вину за преступление, которого он не совершал.
    Сэмпл
    Качество: WEB-DLRip
    Контейнер: AVI
    Видео: 656x368 (1.78:1), 24 fps, XviD build 50 ~872 kbps avg, 0.15 bit/pixel
    Аудио:48 kHz, AC3 Dolby Digital, 2/0 (L,R) ch, ~128 kbps

    MI

    General
    Complete name : C:\Users\Вячеслав\Downloads\Weekend.2014.O.WEB-DLRip.700MB.avi
    Format : AVI
    Format/Info : Audio Video Interleave
    File size : 700 MiB
    Duration : 1h 36mn
    Overall bit rate : 1 010 Kbps
    Writing application : VirtualDubMod 1.5.10.3 | www.virtualdub-fr.org || (build 2550/release)
    Writing library : VirtualDubMod build 2550/release
    Video
    ID : 0
    Format : MPEG-4 Visual
    Format profile : Advanced Simple@L5
    Format settings, BVOP : 2
    Format settings, QPel : No
    Format settings, GMC : No warppoints
    Format settings, Matrix : Default (MPEG)
    Codec ID : XVID
    Codec ID/Hint : XviD
    Duration : 1h 36mn
    Bit rate : 873 Kbps
    Width : 656 pixels
    Height : 368 pixels
    Display aspect ratio : 16:9
    Frame rate : 24.000 fps
    Color space : YUV
    Chroma subsampling : 4:2:0
    Bit depth : 8 bits
    Scan type : Progressive
    Compression mode : Lossy
    Bits/(Pixel*Frame) : 0.151
    Stream size : 604 MiB (86%)
    Writing library : XviD 1.2.1 (UTC 2008-12-04)
    Audio
    ID : 1
    Format : AC-3
    Format/Info : Audio Coding 3
    Mode extension : CM (complete main)
    Format settings, Endianness : Big
    Codec ID : 2000
    Duration : 1h 36mn
    Bit rate mode : Constant
    Bit rate : 128 Kbps
    Channel(s) : 2 channels
    Channel positions : Front: L R
    Sampling rate : 48.0 KHz
    Bit depth : 16 bits
    Compression mode : Lossy
    Stream size : 88.6 MiB (13%)
    Alignment : Split accross interleaves
    Interleave, duration : 42 ms (1.00 video frame)
    Interleave, preload duration : 500 ms

    Скриншоты

    Скачать .torrent

    Скачать торрент-файл бесплатно и на максимальной скорости!

    Как скачивать? · Что такое торрент? · Рейтинг и ограничения

    !ВНИМАНИЕ!
    Сайт не распространяет и не хранит электронные версии произведений, а занимается лишь лишь предоставлением доступа к создаваемому пользователями каталогу ссылок на торрент-файлы, которые содержат только списки хеш-сумм, убедительная просьба с жалобами обращаться напрямую к пользователю. Файлы для обмена на трекере предоставлены пользователями сайта, и администрация не несёт ответственности за их содержание. Просьба не заливать файлы, защищенные авторскими правами, а также файлы нелегального содержания!


    _________________
    [Профиль] [ЛС]
    Показать сообщения:    
    Ответить на тему

    Текущее время: Сегодня, в 03:16

    Часовой пояс: GMT + 2



    Вы не можете начинать темы
    Вы не можете отвечать на сообщения
    Вы не можете редактировать свои сообщения
    Вы не можете удалять свои сообщения
    Вы не можете голосовать в опросах
    Вы не можете прикреплять файлы к сообщениям
    Вы не можете скачивать файлы