Register  ·  Log in
Forgot password?

  • Все ушли (Георгий Параджанов) [2013, Россия, Грузия, Чехия, драма, комедия, биография, DVDRip]

    Reply to topic
    Author Message


    Post 09-Dec-2015 00:13



    Все ушли
    Страна: Россия, Грузия, Чехия
    Жанр: драма, комедия, биография
    Год выпуска: 2013
    Продолжительность: 02:04:00
    Режиссер: Георгий Параджанов
    В ролях: Автандил Махарадзе, Наталья Коляканова, Зураб Кипшидзе, Арам Магакян
    Описание:Спустя много лет Гари приезжает в родной город. Все кажется ему здесь чужим и незнакомым. Он находит местную колдунью, собирательницу снов, которая может помочь ему избавиться от груза воспоминаний.

    Качество: DVDRip
    Контейнер: AVI
    Видео: 624x336 (1.86:1), 25 fps, XviD build 50 ~1336 kbps avg, 0.26 bit/pixel
    Аудио:48 kHz, AC3 Dolby Digital, 3/2 (L,C,R,l,r) + LFE ch, ~384 kbps


    Complete name : C:\Users\Вячеслав\Downloads\Все ушли.DVDRip.1400.Некул.avi
    Format : AVI
    Format/Info : Audio Video Interleave
    File size : 1.47 GiB
    Duration : 2h 1mn
    Overall bit rate : 1 730 Kbps
    Writing application : VirtualDubMod | || (build 2550/release)
    Writing library : VirtualDubMod build 2550/release
    ID : 0
    Format : MPEG-4 Visual
    Format profile : Advanced Simple@L5
    Format settings, BVOP : 1
    Format settings, QPel : No
    Format settings, GMC : No warppoints
    Format settings, Matrix : Default (MPEG)
    Codec ID : XVID
    Codec ID/Hint : XviD
    Duration : 2h 1mn
    Bit rate : 1 336 Kbps
    Width : 624 pixels
    Height : 336 pixels
    Display aspect ratio : 1.85:1
    Frame rate : 25.000 fps
    Color space : YUV
    Chroma subsampling : 4:2:0
    Bit depth : 8 bits
    Scan type : Progressive
    Compression mode : Lossy
    Bits/(Pixel*Frame) : 0.255
    Stream size : 1.13 GiB (77%)
    Writing library : XviD 1.2.1 (UTC 2008-12-04)
    ID : 1
    Format : AC-3
    Format/Info : Audio Coding 3
    Mode extension : CM (complete main)
    Format settings, Endianness : Big
    Codec ID : 2000
    Duration : 2h 1mn
    Bit rate mode : Constant
    Bit rate : 384 Kbps
    Channel(s) : 6 channels
    Channel positions : Front: L C R, Side: L R, LFE
    Sampling rate : 48.0 KHz
    Bit depth : 16 bits
    Compression mode : Lossy
    Stream size : 334 MiB (22%)
    Alignment : Split accross interleaves
    Interleave, duration : 40 ms (1.00 video frame)
    Interleave, preload duration : 500 ms


    Download .torrent

    Download free and at maximum speed!

    How to Download? · What is a torrent? · Ratings and Limitations

    The site does not extend and does not store electronic(digital) versions of products, and only gives access to a reference catalogue created by users on torrent-files which contain only lists of the hash-sums, the earnest entreaty, with complaints(abuse) to access directly to the user. Files for an exchange on tracker are given by users of a site, and the administration does not bear the responsibility for their maintenance. The request to not fill in the files protected by copyrights, and also files of the illegal maintenance!

    [Profile] [PM]
    Display posts from previous:    
    Reply to topic

    The time now is: Today 23:18

    All times are GMT + 3 Hours

    You cannot post new topics in this forum
    You cannot reply to topics in this forum
    You cannot edit your posts in this forum
    You cannot delete your posts in this forum
    You cannot vote in polls in this forum
    You cannot attach files in this forum
    You cannot download files in this forum