BitTorrentTracker PerecTracker.org
BitTorrentTracker PerecTracker.org
    
Регистрация  ·  Вход
 
 · 
Забыли пароль?

  • Любовь-морковь 2 (Максим Пежемский) [2008, Комедия, мелодрама, фэнтези, BDRip]

    Ответить на тему
     
    Автор Сообщение

    rechyn

    Создавать темы 08-Дек-2015 23:12

           

    [Цитировать]

    Любовь-морковь 2
    Жанр: Комедия, мелодрама, фэнтези
    Год выпуска: 2008
    Продолжительность: 01:38:51
    Режиссёр: Максим Пежемский
    В ролях: Кристина Орбакайте, Гоша Куценко, Денис Парамонов, Алина Булынко, Андрей Ургант, Лидия Вележева, Кирилл Плетнёв, Ольга Орлова, Дарья Дроздовская, Павел Меленчук, Леонид Тимцуник, Анастасия Федоркова, Прохор Дубравин, Никита Добин, Маргарита Силкина, Даниил Сонин, Сергей Тезов, Андрей Григорьев-Апполонов, Зураб Гурцкаия, Никас Сафронов, Галина Сазонова, Александр Коржов, Валерий Громовиков, Владимир Чуприков, Валентина Абрамова, Виктория Агапова, Алексей Агрызков, Анна Ковалева, Юрий Думчев, Алла Юганова, Александр Армер, Ефим Банчик, Олег Билик, Полина Борунова, Денис Гнедовец, Максим Громов, Виктор Довженко, Ксения Иванова, Артак Казарян, Александр Кудринский
    Описание: Десять лет назад супруги Голубевы проверили свои чувства на прочность, поменявшись телами. Теперь они — папа Андрей и мама Марина. В их семье растут близнецы, Глеб и Светочка. Жизнь супругов налажена, карьера головокружительна, а день расписан по часам. Они уже плохо помнят, что дети больше любят живых собак, чем искусственных, и что друзья родителей — не лучшая компания в день рожденья. Они забыли, что любовь и внимание дороже денег. Чтобы вернуть все на свои места, нужно опять поменять всех местами — решит доктор Коган и навестит своих старых приятелей Голубевых.
    Сэмпл: http://multi-up.com/1011793
    Качество видео: BDRip [Исходник: Blu-ray RUS 1080p AVC DTS-HD 5.1]
    Формат видео: AVI
    Видео: XviD, 1665 Kбит/с, 720x304 (2.35:1), 23.976 кадр/с
    Аудио: Русский, Dolby АС3, 48000 Гц, 448 Кбит/с, 6 каналов (5.1)

    MediaInfo

    General
    Complete name : Lyubov'.morkov'.2.2008.BDRip.avi
    Format : AVI
    Format/Info : Audio Video Interleave
    File size : 1.47 GiB
    Duration : 1h 38mn
    Overall bit rate : 2 122 Kbps
    Writing application : VirtualDubMod 1.5.10.3 (build 2550/release)
    Writing library : VirtualDubMod build 2550/release
    Video
    ID : 0
    Format : MPEG-4 Visual
    Format profile : Advanced Simple@L5
    Format settings, BVOP : 1
    Format settings, QPel : No
    Format settings, GMC : No warppoints
    Format settings, Matrix : Custom
    Codec ID : XVID
    Codec ID/Hint : XviD
    Duration : 1h 38mn
    Bit rate : 1 665 Kbps
    Width : 720 pixels
    Height : 304 pixels
    Display aspect ratio : 2.35:1
    Frame rate : 23.976 fps
    Color space : YUV
    Chroma subsampling : 4:2:0
    Bit depth : 8 bits
    Scan type : Progressive
    Compression mode : Lossy
    Bits/(Pixel*Frame) : 0.317
    Stream size : 1.15 GiB (78%)
    Writing library : XviD 73
    Audio
    ID : 1
    Format : AC-3
    Format/Info : Audio Coding 3
    Mode extension : CM (complete main)
    Codec ID : 2000
    Duration : 1h 38mn
    Bit rate mode : Constant
    Bit rate : 448 Kbps
    Channel(s) : 6 channels
    Channel positions : Front: L C R, Side: L R, LFE
    Sampling rate : 48.0 KHz
    Bit depth : 16 bits
    Compression mode : Lossy
    Stream size : 317 MiB (21%)
    Alignment : Split accross interleaves
    Interleave, duration : 42 ms (1.00 video frame)
    Interleave, preload duration : 500 ms

    Скриншот c названием фильма

    Скриншоты

    Скачать .torrent

    Скачать торрент-файл бесплатно и на максимальной скорости!

    Как скачивать? · Что такое торрент? · Рейтинг и ограничения

    !ВНИМАНИЕ!
    Сайт не распространяет и не хранит электронные версии произведений, а занимается лишь лишь предоставлением доступа к создаваемому пользователями каталогу ссылок на торрент-файлы, которые содержат только списки хеш-сумм, убедительная просьба с жалобами обращаться напрямую к пользователю. Файлы для обмена на трекере предоставлены пользователями сайта, и администрация не несёт ответственности за их содержание. Просьба не заливать файлы, защищенные авторскими правами, а также файлы нелегального содержания!


    _________________
    [Профиль] [ЛС]
    Показать сообщения:    
    Ответить на тему

    Текущее время: Сегодня, в 16:32

    Часовой пояс: GMT + 2



    Вы не можете начинать темы
    Вы не можете отвечать на сообщения
    Вы не можете редактировать свои сообщения
    Вы не можете удалять свои сообщения
    Вы не можете голосовать в опросах
    Вы не можете прикреплять файлы к сообщениям
    Вы не можете скачивать файлы