BitTorrentTracker PerecTracker.org
BitTorrentTracker PerecTracker.org
    
Регистрация  ·  Вход
 
 · 
Забыли пароль?

  • Байрон. Притча об одержимом / Byron: Ballad for a Daemon (Никос Кундурос / Nikos Koundouros) [1992, Греция, Россия, драма, DVDRip] DVO

    Ответить на тему
     
    Автор Сообщение

    rechyn

    Создавать темы 08-Дек-2015 23:12

           

    [Цитировать]

    Байрон. Притча об одержимом / Μπάιρον, Μπαλάντα για ένα δαίμονα / Byron: Ballad for a Daemon
    Страна: Греция, Россия
    Жанр: драма
    Год выпуска: 1992
    Продолжительность: 02:11:04-Перевод: Профессиональный (двухголосый закадровый)
    Cубтитры: нет
    Оригинальная аудиодорожка: английский-Режиссер: Никос Кундурос / Nikos Koundouros-В ролях: Манос Вакусис, Вера Сотникова, Василис Лагос, Игорь Ясулович, Манолис Сорманн, Акис Сакеллариу, Фархад Махмудов, Александр Кириллов, Теодосис Цаннис, Андрей Астраханцев, Элиас Тсехос, Армен Джигарханян, Дмитрий Писаренко, Виктор Бакин, Сергей Сазонтьев, Владимир Мащенко, Елена Бушуева, Тамара Зайцева, Александр Сажин, Эдуард Радзюкевич, Зинаида Сидоркова, Юрий Цурило, Вячеслав Горбунчиков, Гриша МакГрегор, Ира и Вика Казаченко, Дмитрий Бозин-Описание:
    Уставший от бесцельного существования, истосковавшийся по активной деятельности, Байрон ухватился за предложение лондонского Греческого комитета помочь Греции в войне за независимость и в начале января 1824 прибыл в Мессалонги - маленький городок в Греции, чтобы участвовать в революции...-Доп. информация:
    Награды:
    Гран-при, приз за лучшую мужскую роль (Манос Вакусис), приз за лучшую женскую роль (Вера Сотникова), за звук, музыку, монтаж, костюмы на МКФ в Салониках (1992).
    Синхронизация аудиодорожки: pca1962.-Сэмпл: http://multi-up.com/1011939-Качество видео: DVDRip
    Формат видео: AVI
    Видео: 640x480 (1.33:1), 25 fps, XviD build 50 ~1575 kbps avg, 0.20 bit/pixel
    Аудио: 48 kHz, Microsoft PCM, 2 ch, ~1536.00 kbps avg

    MediaInfo

    Format : AVI
    Format/Info : Audio Video Interleave
    Format profile : OpenDML
    File size : 2.85 GiB
    Duration : 2h 11mn
    Overall bit rate : 3 118 Kbps
    Writing application : MEncoder SVN-r33883(20110719-gcc4.5.2)
    Writing library : VirtualDub build 32817/release
    Video
    ID : 0
    Format : MPEG-4 Visual
    Format profile : Advanced Simple@L5
    Format settings, BVOP : 2
    Format settings, QPel : No
    Format settings, GMC : No warppoints
    Format settings, Matrix : Default (H.263)
    Codec ID : XVID
    Codec ID/Hint : XviD
    Duration : 2h 11mn
    Bit rate : 1 571 Kbps
    Width : 640 pixels
    Height : 480 pixels
    Display aspect ratio : 4:3
    Frame rate : 25.000 fps
    Color space : YUV
    Chroma subsampling : 4:2:0
    Bit depth : 8 bits
    Scan type : Progressive
    Compression mode : Lossy
    Bits/(Pixel*Frame) : 0.205
    Stream size : 1.44 GiB (50%)
    Writing library : XviD 1.2.1 (UTC 2008-12-04)
    Audio
    ID : 1
    Format : PCM
    Format settings, Endianness : Little
    Format settings, Sign : Signed
    Codec ID : 1
    Codec ID/Hint : Microsoft
    Duration : 2h 11mn
    Bit rate mode : Constant
    Bit rate : 1 536 Kbps
    Channel(s) : 2 channels
    Sampling rate : 48.0 KHz
    Bit depth : 16 bits
    Stream size : 1.41 GiB (49%)
    Interleave, duration : 40 ms (1.00 video frame)
    Interleave, preload duration : 500 ms

    Скриншот c названием фильма

    Скриншоты

    Скачать .torrent

    Скачать торрент-файл бесплатно и на максимальной скорости!

    Как скачивать? · Что такое торрент? · Рейтинг и ограничения

    !ВНИМАНИЕ!
    Сайт не распространяет и не хранит электронные версии произведений, а занимается лишь лишь предоставлением доступа к создаваемому пользователями каталогу ссылок на торрент-файлы, которые содержат только списки хеш-сумм, убедительная просьба с жалобами обращаться напрямую к пользователю. Файлы для обмена на трекере предоставлены пользователями сайта, и администрация не несёт ответственности за их содержание. Просьба не заливать файлы, защищенные авторскими правами, а также файлы нелегального содержания!


    _________________
    [Профиль] [ЛС]
    Показать сообщения:    
    Ответить на тему

    Текущее время: Сегодня, в 18:53

    Часовой пояс: GMT + 2



    Вы не можете начинать темы
    Вы не можете отвечать на сообщения
    Вы не можете редактировать свои сообщения
    Вы не можете удалять свои сообщения
    Вы не можете голосовать в опросах
    Вы не можете прикреплять файлы к сообщениям
    Вы не можете скачивать файлы