BitTorrentTracker PerecTracker.org
BitTorrentTracker PerecTracker.org
    
Регистрация  ·  Вход
 
 · 
Забыли пароль?

  • Сюрприз для любимого (Андрей Селиванов) [2014 г., Мелодрама, экранизация, HDTVRip]

    Ответить на тему
     
    Автор Сообщение

    rechyn

    Создавать темы 08-Дек-2015 23:12

           

    [Цитировать]

    Сюрприз для любимого
    Год выпуска: 2014
    Жанр: Мелодрама, экранизация
    Продолжительность: 01:31:17
    Режиссёр: Андрей Селиванов
    В ролях: Анна Невская, Эдуард Трухменёв, Ирина Антоненко, Диана Енакаева, Евгения Каверау, Андрей Биланов, Михаил Ремизов, Анжелика Пашкова
    Описание: Юля - идеальная жена, домохозяйка и мать двух очаровательных девочек. Самозабвенная забота о любимом муже Алексее, маленьких дочерях и доме наполняет всю ее жизнь, и эта жизнь ее вполне устраивает. Но семейная идиллия разрушается в один момент: невольно Юля узнает о любовной связи Алексея с другой женщиной. И ее жизнь, такая отлаженная и, казалось, незыблемая, превращается в кошмар... Случайное знакомство с успешным бизнесменом Николаем помогает Юле вновь обрести себя и поверить в свои силы. Преодолевая боль от предательства мужа, Юля меняет свою жизнь и меняется сама. Теперь это ухоженная и женственная, умная и предприимчивая, успешная и уверенная в себе женщина - о такой можно только мечтать. Но любит Юля по-прежнему только Алексея, от которого ушла...

    Качество: HDTVRip [Исходник: HDTV (1080i)]
    Формат: AVI
    Видео кодек: XviD
    Аудио кодек: AC3
    Видео: XviD, 1005 Кбит/с, 640x352 (16:9), 25 кадр/с
    Аудио: Русский, MP3, 48000 Гц, 128 Кбит/с, 2 канала (Стерео)

    Автор рипа - ivandubskoj

    Знаете ли вы, что...

    Фильм снят по одноименному роману Татьяны Веденской.

    MediaInfo

    General
    Complete name : Syurpriz.dlya.lyubimogo.2014.HDTVRip.745MB.avi
    Format : AVI
    Format/Info : Audio Video Interleave
    File size : 746 MiB
    Duration : 1h 31mn
    Overall bit rate : 1 143 Kbps
    Writing application : VirtualDubMod 1.5.10.3 (build 2550/release)
    Writing library : VirtualDubMod build 2550/release
    Video
    ID : 0
    Format : MPEG-4 Visual
    Format profile : Advanced Simple@L5
    Format settings, BVOP : 2
    Format settings, QPel : No
    Format settings, GMC : No warppoints
    Format settings, Matrix : Custom
    Codec ID : XVID
    Codec ID/Hint : XviD
    Duration : 1h 31mn
    Bit rate : 1 005 Kbps
    Width : 640 pixels
    Height : 352 pixels
    Display aspect ratio : 16:9
    Frame rate : 25.000 fps
    Color space : YUV
    Chroma subsampling : 4:2:0
    Bit depth : 8 bits
    Scan type : Progressive
    Compression mode : Lossy
    Bits/(Pixel*Frame) : 0.179
    Stream size : 657 MiB (88%)
    Writing library : XviD 73
    Audio
    ID : 1
    Format : MPEG Audio
    Format version : Version 1
    Format profile : Layer 3
    Codec ID : 55
    Codec ID/Hint : MP3
    Duration : 1h 31mn
    Bit rate mode : Constant
    Bit rate : 128 Kbps
    Channel(s) : 2 channels
    Sampling rate : 48.0 KHz
    Compression mode : Lossy
    Stream size : 83.6 MiB (11%)
    Alignment : Aligned on interleaves
    Interleave, duration : 40 ms (1.00 video frame)
    Interleave, preload duration : 504 ms
    Writing library : LAME3.99r
    Encoding settings : -m s -V 4 -q 0 -lowpass 17 -b 128

    Скриншот с названием фильма

    Скриншоты

    Скачать .torrent

    Скачать торрент-файл бесплатно и на максимальной скорости!

    Как скачивать? · Что такое торрент? · Рейтинг и ограничения

    !ВНИМАНИЕ!
    Сайт не распространяет и не хранит электронные версии произведений, а занимается лишь лишь предоставлением доступа к создаваемому пользователями каталогу ссылок на торрент-файлы, которые содержат только списки хеш-сумм, убедительная просьба с жалобами обращаться напрямую к пользователю. Файлы для обмена на трекере предоставлены пользователями сайта, и администрация не несёт ответственности за их содержание. Просьба не заливать файлы, защищенные авторскими правами, а также файлы нелегального содержания!


    _________________
    [Профиль] [ЛС]
    Показать сообщения:    
    Ответить на тему

    Текущее время: Сегодня, в 01:59

    Часовой пояс: GMT + 2



    Вы не можете начинать темы
    Вы не можете отвечать на сообщения
    Вы не можете редактировать свои сообщения
    Вы не можете удалять свои сообщения
    Вы не можете голосовать в опросах
    Вы не можете прикреплять файлы к сообщениям
    Вы не можете скачивать файлы