BitTorrentTracker PerecTracker.org
BitTorrentTracker PerecTracker.org
    
Регистрация  ·  Вход
 
 · 
Забыли пароль?

  • Смешанные чувства (Георгий Малков) [2014, Комедия, фантастика, DVDRip]

    Ответить на тему
     
    Автор Сообщение

    rechyn

    Создавать темы 08-Дек-2015 23:12

           

    [Цитировать]

    Смешанные чувства
    Жанр: Комедия, фантастика
    Год выпуска: 2014
    Продолжительность: 01:25:03
    Режиссёр: Георгий Малков
    В ролях: Александр Ревва, Павел Деревянко, Татьяна Космачева, Артем Сучков, Максим Коновалов, Эмиль Никогосян, Вадим Цаллати, Мария Сёмкина, Александр Булатов, Раиса Рязанова
    Описание: Они настолько разные, что не должны были пересечься в обычной жизни. Фил — бывшая звезда 90-х, прославившийся в свое время одной единственной песней. Теперь он работает ди-джеем, завидует Олегу Газманову и не выносит ответственности. Петр — врач-карьерист, сухарь и педант. Записывает на диктофон свои планы на день, боится пригласить девушку на свидание и знать не знает кто такой Газманов. После электрошока они начинают испытывать чувства друг друга. Когда одному больно, то от боли вздрагивает и другой, когда одному из них страшно, то пугается и второй. Смеется один, непроизвольный смех у другого. Веселая жизнь и острые эмоции Фила рушат сначала системную размеренную работу Пети, а затем появляется проблема посерьезнее, когда вслед за Петей в его девушку влюбляется и Фил.

    Качество видео: DVDRip [Исходник: DVD-5]
    Формат видео: AVI
    Видео: XviD, 704x384 (16:9), 25 кадр/с, 2008 Кбит/с
    Аудио: Русский, Dolby AC3, 48000 Гц, 448 Кбит/с, 6 каналов (5.1)

    Автор рипа - ivandubskoj

    MediaInfo

    General
    Complete name : Smeshannye.chuvstva.2014.DVDRip.avi
    Format : AVI
    Format/Info : Audio Video Interleave
    File size : 1.46 GiB
    Duration : 1h 25mn
    Overall bit rate : 2 464 Kbps
    Movie name : Смешанные чувства (2014) DVDRip
    Genre : Комедия, фантастика
    Recorded date : 15.11.2014
    Writing application : VirtualDubMod 1.5.10.3 (build 2550/release)
    Writing library : VirtualDubMod build 2550/release
    Copyright : rip by ivandubskoj
    Video
    ID : 0
    Format : MPEG-4 Visual
    Format profile : Advanced Simple@L5
    Format settings, BVOP : 1
    Format settings, QPel : No
    Format settings, GMC : No warppoints
    Format settings, Matrix : Custom
    Codec ID : XVID
    Codec ID/Hint : XviD
    Duration : 1h 25mn
    Bit rate : 2 008 Kbps
    Width : 704 pixels
    Height : 384 pixels
    Display aspect ratio : 16:9
    Frame rate : 25.000 fps
    Color space : YUV
    Chroma subsampling : 4:2:0
    Bit depth : 8 bits
    Scan type : Progressive
    Compression mode : Lossy
    Bits/(Pixel*Frame) : 0.297
    Stream size : 1.19 GiB (81%)
    Writing library : XviD 73
    Audio
    ID : 1
    Format : AC-3
    Format/Info : Audio Coding 3
    Mode extension : CM (complete main)
    Codec ID : 2000
    Duration : 1h 25mn
    Bit rate mode : Constant
    Bit rate : 448 Kbps
    Channel(s) : 6 channels
    Channel positions : Front: L C R, Side: L R, LFE
    Sampling rate : 48.0 KHz
    Bit depth : 16 bits
    Compression mode : Lossy
    Stream size : 273 MiB (18%)
    Alignment : Split accross interleaves
    Interleave, duration : 64 ms (1.60 video frames)
    Interleave, preload duration : 500 ms

    Скриншот c названием фильма

    Скриншоты

    Скачать .torrent

    Скачать торрент-файл бесплатно и на максимальной скорости!

    Как скачивать? · Что такое торрент? · Рейтинг и ограничения

    !ВНИМАНИЕ!
    Сайт не распространяет и не хранит электронные версии произведений, а занимается лишь лишь предоставлением доступа к создаваемому пользователями каталогу ссылок на торрент-файлы, которые содержат только списки хеш-сумм, убедительная просьба с жалобами обращаться напрямую к пользователю. Файлы для обмена на трекере предоставлены пользователями сайта, и администрация не несёт ответственности за их содержание. Просьба не заливать файлы, защищенные авторскими правами, а также файлы нелегального содержания!


    _________________
    [Профиль] [ЛС]
    Показать сообщения:    
    Ответить на тему

    Текущее время: Сегодня, в 18:46

    Часовой пояс: GMT + 2



    Вы не можете начинать темы
    Вы не можете отвечать на сообщения
    Вы не можете редактировать свои сообщения
    Вы не можете удалять свои сообщения
    Вы не можете голосовать в опросах
    Вы не можете прикреплять файлы к сообщениям
    Вы не можете скачивать файлы