Register  ·  Log in
Forgot password?

  • Ожерелье (Александр Хван) [2013, Мелодрама, HDTVRip]

    Reply to topic
    Author Message


    Post 09-Dec-2015 00:12



    ОжерельеЖанр: Мелодрама
    Год выпуска: 2013
    Продолжительность: 01:33:25
    Режиссёр: Александр Хван
    В ролях: Мария Куликова, Екатерина Андреева, Мария Болонкина, Ольга Филиппова, Кирилл Гребенщиков, Андрей Биланов, Сергей Мухин, Юлия Васильева, Григорий Рыжиков, Галина Шмакова, Владимир Павленко
    Описание: Марина, красивая и талантливая профессорская дочь, влачит жалкое существование. После смерти отца она все силы кинула на то, чтобы помочь своему женатому возлюбленному Юрию продвинуться по службе. А став деканом, Юрий, во избежание сплетен, оставил Марину на должности лаборантки...
    Рип от:
    Качество видео: HDTVRip
    Формат видео: AVI
    Видео кодек: XviD
    Аудио кодек: MP3
    Видео: 624x352 (1.77:1), 25 fps, XviD build 73 ~977 kbps avg, 0.18 bit/pixel
    Аудио: 48 kHz, MPEG Layer 3, 2 ch, ~128.00 kbps avg


    Complete name : D:\Торрент\Мои рипы\Ожерелье\ Шкипер.avi
    Format : AVI
    Format/Info : Audio Video Interleave
    File size : 745 MiB
    Duration : 1h 33mn
    Overall bit rate : 1 115 Kbps
    Writing application : VirtualDubMod | || (build 2550/release)
    Writing library : VirtualDubMod build 2550/release
    ID : 0
    Format : MPEG-4 Visual
    Format profile : Advanced Simple@L5
    Format settings, BVOP : 1
    Format settings, QPel : No
    Format settings, GMC : No warppoints
    Format settings, Matrix : Default (MPEG)
    Codec ID : XVID
    Codec ID/Hint : XviD
    Duration : 1h 33mn
    Bit rate : 978 Kbps
    Width : 624 pixels
    Height : 352 pixels
    Display aspect ratio : 16:9
    Frame rate : 25.000 fps
    Color space : YUV
    Chroma subsampling : 4:2:0
    Bit depth : 8 bits
    Scan type : Progressive
    Compression mode : Lossy
    Bits/(Pixel*Frame) : 0.178
    Stream size : 653 MiB (88%)
    Writing library : XviD 73
    ID : 1
    Format : MPEG Audio
    Format version : Version 1
    Format profile : Layer 3
    Mode : Joint stereo
    Mode extension : MS Stereo
    Codec ID : 55
    Codec ID/Hint : MP3
    Duration : 1h 33mn
    Bit rate mode : Constant
    Bit rate : 128 Kbps
    Channel(s) : 2 channels
    Sampling rate : 48.0 KHz
    Compression mode : Lossy
    Stream size : 85.5 MiB (11%)
    Alignment : Aligned on interleaves
    Interleave, duration : 40 ms (1.00 video frame)
    Interleave, preload duration : 504 ms
    Writing library : LAME3.99r
    Encoding settings : -m j -V 4 -q 2 -lowpass 17 -b 128

    Скриншот c названием фильма



    Download .torrent

    Download free and at maximum speed!

    How to Download? · What is a torrent? · Ratings and Limitations

    The site does not extend and does not store electronic(digital) versions of products, and only gives access to a reference catalogue created by users on torrent-files which contain only lists of the hash-sums, the earnest entreaty, with complaints(abuse) to access directly to the user. Files for an exchange on tracker are given by users of a site, and the administration does not bear the responsibility for their maintenance. The request to not fill in the files protected by copyrights, and also files of the illegal maintenance!

    [Profile] [PM]
    Display posts from previous:    
    Reply to topic

    The time now is: Today 02:34

    All times are GMT + 3 Hours

    You cannot post new topics in this forum
    You cannot reply to topics in this forum
    You cannot edit your posts in this forum
    You cannot delete your posts in this forum
    You cannot vote in polls in this forum
    You cannot attach files in this forum
    You cannot download files in this forum