Register  ·  Log in
Forgot password?

  • Тайная сила (Марина Казнина) [2002 г., сказка, TVRip]

    Reply to topic
    Author Message


    Post 09-Dec-2015 00:12



    Тайная силаГод выпуска: 2002.
    Жанр: сказка.
    Продолжительность: 01:22:28.
    Режиссер: Марина Казнина.
    В ролях:
    Нонна Гришаева, Андрей Егоров, Людмила Чурсина, Татьяна Лютаева, Дарья Панкратова, Алексей Булдаков, Константин Котляров, Валерий Прохоров.
    Хозяйка Медной горы, Полоз и прочие духи уральских гор общаются с современными людьми, которые вмешиваются в сказочную жизнь.
    Доп. информация:
    Страна: Россия .
    Киностудия: Свердловская киностудия, Уралкиновидео-центр.
    Авторы сценария: Марина Казнина, Людмила Кукоба.
    Оператор: Татьяна Логинова.
    Композитор: Александр Пантыкин.
    Художник: Валерий Лукинов.
    Премьера: 23 октября 2008 года.

    Еще постер

    Рип sharky.

    Качество: TVRip
    Формат: AVI
    Видео: 704x528 (1.33:1), 25 fps, DivX Codec 4.x ~1757 kbps avg, 0.19 bit/pixel
    Аудио: 48 kHz, MPEG Layer 3, 2 ch, ~128.00 kbps avg

    Отчет MediaInfo

    Полное имя : Tajnaja.sila.2002.DivX.TVRip.fenixclub.avi
    Format : AVI
    Format/Info : Audio Video Interleave
    File size : 1.09 GiB
    Duration : 1h 22mn
    Overall bit rate : 1 896 Kbps
    ID : 0
    Format : MPEG-4 Visual
    Format settings, BVOP : 1
    Format settings, QPel : No
    Format settings, GMC : No warppoints
    Format settings, Matrix : Default (H.263)
    Muxing mode : Packed bitstream
    Codec ID : DX50
    Codec ID/Hint : DivX 5
    Duration : 1h 22mn
    Bit rate : 1 758 Kbps
    Width : 704 pixels
    Height : 528 pixels
    Display aspect ratio : 4:3
    Frame rate : 25.000 fps
    Color space : YUV
    Chroma subsampling : 4:2:0
    Bit depth : 8 bits
    Scan type : Progressive
    Compression mode : Lossy
    Bits/(Pixel*Frame) : 0.189
    Stream size : 1.01 GiB (93%)
    Title : Video
    Writing library : DivX 3013
    ID : 1
    Format : MPEG Audio
    Format version : Version 1
    Format profile : Layer 3
    Codec ID : 55
    Codec ID/Hint : MP3
    Duration : 1h 22mn
    Bit rate mode : Constant
    Bit rate : 128 Kbps
    Channel(s) : 2 channels
    Sampling rate : 48.0 KHz
    Compression mode : Lossy
    Stream size : 75.5 MiB (7%)
    Alignment : Split accross interleaves
    Interleave, duration : 40 ms (1.00 video frame)
    Interleave, preload duration : 500 ms
    Title : Audio

    Альтернативный хост

    Download .torrent

    Download free and at maximum speed!

    How to Download? · What is a torrent? · Ratings and Limitations

    The site does not extend and does not store electronic(digital) versions of products, and only gives access to a reference catalogue created by users on torrent-files which contain only lists of the hash-sums, the earnest entreaty, with complaints(abuse) to access directly to the user. Files for an exchange on tracker are given by users of a site, and the administration does not bear the responsibility for their maintenance. The request to not fill in the files protected by copyrights, and also files of the illegal maintenance!

    [Profile] [PM]
    Display posts from previous:    
    Reply to topic

    The time now is: Today 04:31

    All times are GMT + 3 Hours

    You cannot post new topics in this forum
    You cannot reply to topics in this forum
    You cannot edit your posts in this forum
    You cannot delete your posts in this forum
    You cannot vote in polls in this forum
    You cannot attach files in this forum
    You cannot download files in this forum