BitTorrentTracker PerecTracker.org
BitTorrentTracker PerecTracker.org
    
Регистрация  ·  Вход
 
 · 
Забыли пароль?

  • 9 дней и одно утро (Вера Сторожева) [2014, Россия, драма, DVDRip]

    Ответить на тему
     
    Автор Сообщение

    rechyn

    Создавать темы 08-Дек-2015 23:12

           

    [Цитировать]

    9 дней и одно утро
    Страна: Россия
    Жанр: драма
    Год выпуска: 2014
    Продолжительность: 01:24:39
    Перевод: Не требуется
    Cубтитры: нет
    Режиссер: Вера Сторожева
    В ролях: Анна Щербинина, Ольга Попова, Ксавье Галле, Сергей Пускепалис, Глеб Пускепалис, Светлана Тома, Сергей Попов, Максим Битюков, Лариса Кривцова, Татьяна Медведева...
    Описание: Анна, парижская фотомодель, лицо известной косметической фирмы с благотворительной акцией приезжает в старинный русский город. Здесь в детдоме прошло ее детство, но много лет назад Анну удочерила супружеская пара из Франции. Жизнь девушки, казалось бы, устроилась благополучно. Но за девять дней в родных местах Анне предстоит узнать тайну своей настоящей семьи и найти себя…

    Качество видео: DVDRip
    Формат видео: AVI
    Видео: 720x384 (1.88:1), 25 fps, XviD build 73 ~1092 kbps avg, 0.16 bit/pixel
    Аудио: 48 kHz, MPEG Layer 3, 2 ch, ~128.00 kbps avg

    MediaInfo

    Формат : AVI
    Формат/Информация : Audio Video Interleave
    Размер файла : 745 Мбайт
    Продолжительность : 1 ч. 24 м.
    Общий поток : 1231 Кбит/сек
    Программа кодирования : VirtualDubMod 1.5.10.3 | www.virtualdub-fr.org || (build 2550/release)
    Библиотека кодирования : VirtualDubMod build 2550/release
    Видео
    Идентификатор : 0
    Формат : MPEG-4 Visual
    Профиль формата : Advanced Simple@L5
    Параметр BVOP формата : 1
    Параметр QPel формата : Нет
    Параметр GMC формата : Без точки перехода
    Параметр матрицы формата : Выборочная
    Идентификатор кодека : XVID
    Идентификатор кодека/Подсказка : XviD
    Продолжительность : 1 ч. 24 м.
    Битрейт : 1093 Кбит/сек
    Ширина : 720 пикселей
    Высота : 384 пикселя
    Соотношение сторон : 1,85:1
    Частота кадров : 25,000 кадров/сек
    Цветовое пространство : YUV
    Субдискретизация насыщенности : 4:2:0
    Битовая глубина : 8 бит
    Тип развёртки : Прогрессивная
    Метод сжатия : С потерями
    Бит/(Пиксели*Кадры) : 0.158
    Размер потока : 662 Мбайт (89%)
    Библиотека кодирования : XviD 73
    Аудио
    Идентификатор : 1
    Формат : MPEG Audio
    Версия формата : Version 1
    Профиль формата : Layer 3
    Идентификатор кодека : 55
    Идентификатор кодека/Подсказка : MP3
    Продолжительность : 1 ч. 24 м.
    Вид битрейта : Постоянный
    Битрейт : 128 Кбит/сек
    Каналы : 2 канала
    Частота : 48,0 КГц
    Метод сжатия : С потерями
    Размер потока : 77,5 Мбайт (10%)
    Выравнивание : Соединение по промежуткам
    Продолжительность промежутка : 40 мс. (1,00 видеокадр)
    Время предзагрузки промежутка : 504 мс.
    Библиотека кодирования : LAME3.99r
    Настройки программы : -m s -V 4 -q 2 -lowpass 17 -b 128

    Скриншоты

    Скачать .torrent

    Скачать торрент-файл бесплатно и на максимальной скорости!

    Как скачивать? · Что такое торрент? · Рейтинг и ограничения

    !ВНИМАНИЕ!
    Сайт не распространяет и не хранит электронные версии произведений, а занимается лишь лишь предоставлением доступа к создаваемому пользователями каталогу ссылок на торрент-файлы, которые содержат только списки хеш-сумм, убедительная просьба с жалобами обращаться напрямую к пользователю. Файлы для обмена на трекере предоставлены пользователями сайта, и администрация не несёт ответственности за их содержание. Просьба не заливать файлы, защищенные авторскими правами, а также файлы нелегального содержания!


    _________________
    [Профиль] [ЛС]
    Показать сообщения:    
    Ответить на тему

    Текущее время: Сегодня, в 04:20

    Часовой пояс: GMT + 2



    Вы не можете начинать темы
    Вы не можете отвечать на сообщения
    Вы не можете редактировать свои сообщения
    Вы не можете удалять свои сообщения
    Вы не можете голосовать в опросах
    Вы не можете прикреплять файлы к сообщениям
    Вы не можете скачивать файлы