BitTorrentTracker PerecTracker.org
BitTorrentTracker PerecTracker.org
    
Регистрация  ·  Вход
 
 · 
Забыли пароль?

  • Жены по вызову / Call Girl Wives (Майкл Витрэйс / Michael Whiteacre) [2005, США, комедия, эротика, SATRip] MVO

    Ответить на тему
     
    Автор Сообщение

    Columb

    Создавать темы 04-Авг-2013 11:02

           

    [Цитировать]

    Жены по вызову / Call Girl Wives
    Страна: США
    Жанр: комедия, эротика
    Год выпуска: 2005
    Продолжительность: 01:20:02
    Перевод: Профессиональный (многоголосый закадровый)
    Cубтитры: нет
    Режиссер: Майкл Витрэйс / Michael Whiteacre
    В ролях: Шейла Стайлз (в титрах Amanda Auclair), Тейми Ханум, Эшли Лонг, Кели Мари, Джули К. Смит, Бриттани Эндрюс (в титрах Miss Brittany Andrews), Эшли Блю, Алекс Браун, Скот Стайлес, Тристан Сигал, Эрик Уоррен
    Описание: Скучные будни трёх подруг-домохозяек надоели им. Каждый день оставаться дома одной и постепенно наскучить своему мужу - кому понравится такое? Собравшись вместе, они решают стать более независимыми и свободными. А реализовать свои амбиции они решают, открыв агентство, предоставляющее ряд услуг, общим названием которых стало "Жены по вызову"...
    Сэмпл: http://multi-up.com/890220
    Качество видео: SATRip
    Формат видео: MKV
    Видео: AVC/H.264, 912x464, 23.976fps, 2390 Kb/s
    Аудио: 48KHz, AC3, 224 Kb/s (2 ch)

    MediaInfo

    Общее
    Уникальный идентификатор : 284759433080428275795184084343358632078 (0xD63AAC0266998DB6AAE185210C06308E)
    Полное имя : D:\Call.Girl.Wives_2005.SATRip.mkv
    Формат : Matroska
    Версия формата : Version 2
    Размер файла : 1,45 Гбайт
    Продолжительность : 1 ч. 20 м.
    Общий поток : 2591 Кбит/сек
    Программа кодирования : HandBrake 0.9.5
    Библиотека кодирования : libmkv 0.6.4.1
    Видео
    Идентификатор : 1
    Формат : AVC
    Формат/Информация : Advanced Video Codec
    Профиль формата : Main@L3.1
    Параметр CABAC формата : Да
    Параметр ReFrames формата : 4 кадра
    Идентификатор кодека : V_MPEG4/ISO/AVC
    Продолжительность : 1 ч. 20 м.
    Битрейт : 2391 Кбит/сек
    Ширина : 912 пикселей
    Высота : 464 пикселя
    Соотношение сторон : 1,966
    Режим частоты кадров : Постоянный
    Частота кадров : 23,976 кадра/сек
    Цветовое пространство : YUV
    Субдискретизация насыщенности : 4:2:0
    Битовая глубина : 8 бит
    Тип развёртки : Прогрессивная
    Бит/(Пиксели*Кадры) : 0.236
    Размер потока : 1,29 Гбайт (89%)
    Библиотека кодирования : x264 core 112
    Настройки программы : cabac=1 / ref=2 / deblock=1:0:0 / analyse=0x1:0x111 / me=hex / subme=6 / psy=1 / psy_rd=1.00:0.00 / mixed_ref=0 / me_range=16 / chroma_me=1 / trellis=0 / 8x8dct=0 / cqm=0 / deadzone=21,11 / fast_pskip=1 / chroma_qp_offset=-2 / threads=3 / sliced_threads=0 / nr=0 / decimate=1 / interlaced=0 / constrained_intra=0 / bframes=2 / b_pyramid=2 / b_adapt=1 / b_bias=0 / direct=1 / weightb=0 / open_gop=0 / weightp=2 / keyint=240 / keyint_min=23 / scenecut=40 / intra_refresh=0 / rc_lookahead=40 / rc=abr / mbtree=1 / bitrate=2391 / ratetol=1.0 / qcomp=0.60 / qpmin=3 / qpmax=51 / qpstep=4 / ip_ratio=1.40 / aq=1:1.00
    Язык : English
    Default : Да
    Forced : Нет
    Основные цвета : BT.601 NTSC
    Характеристики трансфера : BT.709
    Коэффициенты матрицы : BT.601
    Аудио
    Идентификатор : 2
    Формат : AC-3
    Формат/Информация : Audio Coding 3
    Расширение режима : CM (complete main)
    Параметр Endianness формата : Big
    Идентификатор кодека : A_AC3
    Продолжительность : 1 ч. 20 м.
    Вид битрейта : Постоянный
    Битрейт : 224 Кбит/сек
    Каналы : 2 канала
    Расположение каналов : Front: L R
    Частота : 48,0 КГц
    Битовая глубина : 16 бит
    Метод сжатия : С потерями
    Размер потока : 128 Мбайт (9%)
    Default : Да
    Forced : Нет

    Скриншот c названием фильма

    Скриншоты

    Скачать .torrent

    Скачать торрент-файл бесплатно и на максимальной скорости!

    Как скачивать? · Что такое торрент? · Рейтинг и ограничения

    !ВНИМАНИЕ!
    Сайт не распространяет и не хранит электронные версии произведений, а занимается лишь лишь предоставлением доступа к создаваемому пользователями каталогу ссылок на торрент-файлы, которые содержат только списки хеш-сумм, убедительная просьба с жалобами обращаться напрямую к пользователю. Файлы для обмена на трекере предоставлены пользователями сайта, и администрация не несёт ответственности за их содержание. Просьба не заливать файлы, защищенные авторскими правами, а также файлы нелегального содержания!

    [Профиль] [ЛС]
    Показать сообщения:    
    Ответить на тему

    Текущее время: Сегодня, в 10:05

    Часовой пояс: GMT + 2



    Вы не можете начинать темы
    Вы не можете отвечать на сообщения
    Вы не можете редактировать свои сообщения
    Вы не можете удалять свои сообщения
    Вы не можете голосовать в опросах
    Вы не можете прикреплять файлы к сообщениям
    Вы не можете скачивать файлы